Статистика раздачи
Размер:  2,22 GB   |    Зарегистрирован:  7 месяцев 27 дней   |    Скачан:  0 раз

Полного источника не было: Никогда

 
     
 
 

Гость ®

Пол:
Не указан

Возвращение (2 серии)
Торрент обновлен, добавлена 2-я серия
Жанр: лирическая комедия
Год выпуска: 1987
Продолжительность: 01:07:17 + 01:16:26
Режиссёр: Анатолий Буковский
В ролях: Юрий Назаров, Нина Антонова, Евгений Шутов, Сергей Столяров, Татьяна Кравченко, Александр Белявский, Георгий Куликов, Елена Ильенко, Любовь Соколова, Людмила Алфимова, Александр Милютин, Анатолий Матешко, Наталия Полищук, Леонид Яновский
Описание: Сергей Михайлович Сорокин, приезжает в родное село продавать свой дом. Встретившись с односельчанами, он многое узнает об их жизни. Сергей Михайлович принимает решение остаться работать в родном совхозе, что бы навсегда вернуться к родной земле...
Доп. информация: запись потока *.ts со спутника EUTELSAT 36A/B, 36° в.д., удаление рекламы программой VideoReDo.
Качество видео: DVB
Формат видео: TS
Видео: Advanced Video Codec, 720(768)x576 (4:3), 25,000 кадров/сек, 1948 Кбит/сек
Аудио: MPEG Audio, 48,0 КГц, 192 Кбит/сек, 2 канала

MediaInfo

General
ID : 1 (0x1)
Complete name : F:\ГОТОВОЕ\ВОЗВРАЩЕНИЕ 01 (Ностальгия).ts
Format : MPEG-TS
File size : 1.01 GiB
Duration : 1 h 7 min
Overall bit rate mode : Variable
Overall bit rate : 2 159 kb/s
Video
ID : 217 (0xD9)
Menu ID : 1 (0x1)
Format : AVC
Format/Info : Advanced Video Codec
Format profile : High@L3
Format settings : CABAC / 4 Ref Frames
Format settings, CABAC : Yes
Format settings, ReFrames : 4 frames
Codec ID : 27
Duration : 1 h 7 min
Bit rate : 1 859 kb/s
Width : 720 pixels
Height : 576 pixels
Display aspect ratio : 4:3
Frame rate : 25.000 FPS
Standard : Component
Color space : YUV
Chroma subsampling : 4:2:0
Bit depth : 8 bits
Scan type : Interlaced
Scan type, store method : Separated fields
Scan order : Top Field First
Bits/(Pixel*Frame) : 0.179
Stream size : 895 MiB (86%)
Color range : Limited
Color primaries : BT.601 PAL
Transfer characteristics : BT.470 System B/G
Matrix coefficients : BT.470 System B/G
Audio
ID : 317 (0x13D)
Menu ID : 1 (0x1)
Format : MPEG Audio
Format version : Version 1
Format profile : Layer 2
Codec ID : 3
Duration : 1 h 7 min
Bit rate mode : Constant
Bit rate : 192 kb/s
Channel(s) : 2 channels
Sampling rate : 48.0 kHz
Frame rate : 41.667 FPS (1152 SPF)
Compression mode : Lossy
Stream size : 92.4 MiB (9%)
Language : Russian
General
ID : 1 (0x1)
Complete name : D:\Torrent\ВОЗВРАЩЕНИЕ\ВОЗВРАЩЕНИЕ 02 (Ностальгия).ts
Format : MPEG-TS
File size : 1.20 GiB
Duration : 1 h 16 min
Overall bit rate mode : Variable
Overall bit rate : 2 253 kb/s
Video
ID : 217 (0xD9)
Menu ID : 1 (0x1)
Format : AVC
Format/Info : Advanced Video Codec
Format profile : High@L3
Format settings : CABAC / 4 Ref Frames
Format settings, CABAC : Yes
Format settings, ReFrames : 4 frames
Codec ID : 27
Duration : 1 h 16 min
Bit rate : 1 948 kb/s
Width : 720 pixels
Height : 576 pixels
Display aspect ratio : 4:3
Frame rate : 25.000 FPS
Standard : Component
Color space : YUV
Chroma subsampling : 4:2:0
Bit depth : 8 bits
Scan type : Interlaced
Scan type, store method : Separated fields
Scan order : Top Field First
Bits/(Pixel*Frame) : 0.188
Stream size : 1.04 GiB (86%)
Color range : Limited
Color primaries : BT.601 PAL
Transfer characteristics : BT.470 System B/G
Matrix coefficients : BT.470 System B/G
Audio
ID : 317 (0x13D)
Menu ID : 1 (0x1)
Format : MPEG Audio
Format version : Version 1
Format profile : Layer 2
Codec ID : 3
Duration : 1 h 16 min
Bit rate mode : Constant
Bit rate : 192 kb/s
Channel(s) : 2 channels
Sampling rate : 48.0 kHz
Frame rate : 41.667 FPS (1152 SPF)
Compression mode : Lossy
Stream size : 105 MiB (9%)
Language : Russian
[cybertorrent.net].t392.torrent 
Торрент: Зарегистрирован [ 2019-03-18 10:04 ] · 1441F19617DA2BD5E50ABD63E41693D1A9BFBCAC

Скачать .torrent

Скачать

12 KB

Статус: проверено
Скачан: 0 раз
Размер: 2,22 GB
terms.php
Показать сообщения:    

Текущее время: 14-Ноя 14:13

Часовой пояс: UTC ± 0



Вы не можете начинать темы
Вы не можете отвечать на сообщения
Вы не можете редактировать свои сообщения
Вы не можете удалять свои сообщения
Вы не можете голосовать в опросах
Вы не можете прикреплять файлы к сообщениям
Вы можете скачивать файлы