Статистика раздачи
Размер:  1,19 GB   |    Зарегистрирован:  6 месяцев 28 дней   |    Скачан:  0 раз

Полного источника не было: Никогда

   
 

serzh ®

Пол:
Не указан
Стаж:
7 месяцев 3 дня
Сообщений:
384

Собаки в космосе / Dogs In Space
Страна: Австралия
Жанр: комедия, драма, музыкальный
Год выпуска: 1986
Продолжительность: 01:43:00
Перевод: субтитры, кооператив «Повстанческие чудеса»
Субтитры: русские
Оригинальная аудиодорожка: английский

Режиссер: Ричард Ловенштейн / Richard Lowenstein
Ключевые слова: панк, злоупотребление наркотиками, безрассудная молодость, контркультура, 70-е, корм для собак
В ролях: Майкл Хатченс, Саския Пост, Ник Нидлз, Дианна Бонд, Тони Хилу, Крис Хэйвуд, Питер Уолш, Лора Свонсон, Адам Брискомб, Шэрон Джессоп, Эдвард Клейтон-Джоунс, Фиона Лэтэм, Ноа Тейлор
Описание: Жильцы и гости странного дома в Ричмонде, пригороде Мельбурна - панки, хиппи, студенты и активисты - выживают на диете из телевидения, наркотиков, хорошей музыки и ощущения, что обломки космической станции в любой момент могут прорваться сквозь крышу. Это времена феномена «little band scene» - мельбурнского экспериментального пост-панка.
Доп. информация: Центральный персонаж Сэм основан на Сэме Сеявка из группы «The Ears», с которым Ловенштейн жил в конце 1970-х. Чак Мео, который играет барабанщика в фильме, также жил с парой. Дом на Берри-стрит, 18 - тот же дом, в котором жили Ловенштейн и Сеявка.
Сэмпл: http://sendfile.su/1479544
Качество видео: WEB-DLRip-AVC
Формат видео: MKV
Видео: AVC (Main@L4.1), 1 544 Kbps, 1280*546 (2.35:1), 25.000 fps
Аудио: AAC (LC), 128 Kbps, 48 KHz, 2 channels

MediaInfo

General
Unique ID : 305758906974009081182777927929935474517 (0xE607060228910989F658CD70EF60AF55)
Complete name : /home/pomm/Загрузки/(1986) dogs in space.mkv
Format : Matroska
Format version : Version 4 / Version 2
File size : 1.19 GiB
Duration : 1h 44mn
Overall bit rate : 1 636 Kbps
Encoded date : UTC 2019-03-04 15:22:01
Writing application : mkvmerge v8.8.0 ('Wind at my back') 64bit
Writing library : libebml v1.3.3 + libmatroska v1.4.4
Video
ID : 2
Format : AVC
Format/Info : Advanced Video Codec
Format profile : Main@L4.1
Format settings, CABAC : Yes
Format settings, ReFrames : 4 frames
Codec ID : V_MPEG4/ISO/AVC
Duration : 1h 44mn
Bit rate : 1 544 Kbps
Width : 1 280 pixels
Height : 546 pixels
Display aspect ratio : 2.35:1
Frame rate mode : Constant
Frame rate : 25.000 fps
Color space : YUV
Chroma subsampling : 4:2:0
Bit depth : 8 bits
Scan type : Progressive
Bits/(Pixel*Frame) : 0.088
Stream size : 1.10 GiB (92%)
Writing library : x264 core 142 r2479 dd79a61
Encoding settings : cabac=1 / ref=4 / deblock=1:0:0 / analyse=0x1:0x111 / me=hex / subme=2 / psy=1 / psy_rd=1.00:0.00 / mixed_ref=0 / me_range=16 / chroma_me=1 / trellis=0 / 8x8dct=0 / cqm=0 / deadzone=21,11 / fast_pskip=1 / chroma_qp_offset=0 / threads=3 / lookahead_threads=1 / sliced_threads=0 / nr=0 / decimate=1 / interlaced=0 / bluray_compat=0 / constrained_intra=0 / bframes=5 / b_pyramid=2 / b_adapt=1 / b_bias=0 / direct=1 / weightb=1 / open_gop=0 / weightp=2 / keyint=250 / keyint_min=25 / scenecut=40 / intra_refresh=0 / rc_lookahead=10 / rc=abr / mbtree=1 / bitrate=1544 / ratetol=1.0 / qcomp=0.60 / qpmin=0 / qpmax=69 / qpstep=4 / vbv_maxrate=50000 / vbv_bufsize=62500 / nal_hrd=none / filler=0 / ip_ratio=1.40 / aq=1:1.00
Default : Yes
Forced : No
Color range : Limited
Color primaries : BT.709
Transfer characteristics : BT.709
Matrix coefficients : BT.709
Audio
ID : 3
Format : AAC
Format/Info : Advanced Audio Codec
Format profile : LC
Codec ID : A_AAC
Duration : 1h 44mn
Bit rate : 128 Kbps
Channel(s) : 2 channels
Channel positions : Front: L R
Sampling rate : 48.0 KHz
Frame rate : 46.875 fps (1024 spf)
Compression mode : Lossy
Delay relative to video : -21ms
Stream size : 95.5 MiB (8%)
Title : Stereo
Language : English
Default : Yes
Forced : No
Text
ID : 1
Format : UTF-8
Codec ID : S_TEXT/UTF8
Codec ID/Info : UTF-8 Plain Text
Duration : 1h 39mn
Bit rate : 87 bps
Count of elements : 1165
Stream size : 63.5 KiB (0%)
Language : Russian
Default : Yes
Forced : No

Скриншот c названием фильма

Скриншоты




Субтитры

717
00:58:52,195 --> 00:58:53,654
Но нужно не забыть...
718
00:58:53,654 --> 00:58:56,871
поставить пластиковую крышку
обратно сверху.
719
00:58:56,871 --> 00:59:00,077
В противном случае можно
поставить туда руку...
720
00:59:00,077 --> 00:59:01,946
...и сжечь её заднюю часть
головкой блока цилиндров.
721
00:59:02,990 --> 00:59:07,609
Так или иначе, это чертовски
удивительная машина!
722
00:59:08,258 --> 00:59:09,753
Чертовски удивительная машина!
723
00:59:32,480 --> 00:59:34,135
Не забудь батарейки.
724
00:59:34,995 --> 00:59:37,574
Здравствуйте, добро пожаловать в
магазин... Чем мы можем помочь?!
725
00:59:41,908 --> 00:59:43,987
Лучше бы здесь был
гоголь-моголь!
726
00:59:45,751 --> 00:59:47,028
Только один остался, и он мой!
727
00:59:48,533 --> 00:59:50,604
Я скажу Тиму... но не думаю,
что он будет очень доволен.
728
00:59:54,461 --> 00:59:56,312
- Тим... Гоголь-моголя не осталось.
- Что?!
729
00:59:58,546 --> 01:00:00,480
Чёртового гоголь-моголя не осталось...
Чувак, куда мир катится?!
730
01:00:00,480 --> 01:00:02,625
Меня называли по-разному
в своё время...
731
01:00:02,625 --> 01:00:04,326
...но я не несу ответственности
за недопоставки.
732
01:00:04,326 --> 01:00:05,616
Мне нравятся эти...
733
01:00:05,616 --> 01:00:06,905
Можно цельнозерновой сэндвич?
734
01:00:06,905 --> 01:00:08,269
Можно «Коко-попс»?
735
01:00:09,342 --> 01:00:11,261
Дэвис, ты действительно туп!
736
01:00:11,261 --> 01:00:14,193
Большие / маленькие...
737
01:00:18,170 --> 01:00:19,733
Ну, по крайней мере, есть хлеб.
[cybertorrent.net].t391.torrent 
Торрент: Зарегистрирован [ 2019-03-18 10:04 ] · 9D9B556039BD7C0637036ABD859540D4EC3178C9

Скачать .torrent

Скачать

48 KB

Статус: проверено
Скачан: 0 раз
Размер: 1,19 GB
terms.php
Профиль ЛС
Показать сообщения:    

Текущее время: 15-Окт 21:25

Часовой пояс: UTC ± 0



Вы не можете начинать темы
Вы не можете отвечать на сообщения
Вы не можете редактировать свои сообщения
Вы не можете удалять свои сообщения
Вы не можете голосовать в опросах
Вы не можете прикреплять файлы к сообщениям
Вы можете скачивать файлы