Статистика раздачи
Размер:  1,52 GB   |    Зарегистрирован:  7 месяцев 26 дней   |    Скачан:  0 раз

Полного источника не было: Никогда

 
     
 
 

serzh ®

Пол:
Не указан
Стаж:
8 месяцев 1 день
Сообщений:
384

Монстр из шкафа / Monster in the Closet
Страна: США
Жанр: ужасы, фантастика, комедия
Год выпуска: 1986
Продолжительность: 01:29:37
Перевод: Профессиональный (многоголосый закадровый) Другое кино
Субтитры: нет
Оригинальная аудиодорожка: английский
Режиссер: Боб Далин / Bob Dahlin
В ролях: Дональд Грант, Дениз ДюБарри, Клод Экинс, Говард Дафф, Генри Гибсон, Дональд Моффет, Пол Дули, Джон Кэрредин, Джесси Уайт, Фрэнк Эшмор...
Описание: Сан-Франциско превратилось в арену кровавых игрищ: серийный маньяк лишает жизни своих жертв исключительно в их домашних шкафах. За расследование принимается корреспондент местной, желтой газеты. Между тем монстр выбирается из шкафа, ситуация начинает выходить из-под контроля, президент Соединенных Штатов объявляет чрезвычайное положение. На бой с чудовищем отправляют армию, но и это не спасает положение.
По всему миру распространяется паника и массовая истерия, а неудержимая тварь из стенного шкафа продолжает свой решительный марш. По всей западной части Соединенных Штатов идет подготовка к эвакуации населения. Религиозные лидеры и ученые предсказывают самое страшное — конец цивилизации. Единственный способ спасти планету — уничтожить все стенные шкафы в мире, которые чудовище облюбовало в качестве укрытий, передвигаясь от одного к другому…
Доп. информация: Перевод с раздачи Kardinal2008, в раздаче звук не подогнан, рассинхрон до 500мс. Синхронизация звука - Dreven.
Сэмпл: http://sendfile.su/1479506
Качество видео: DVDRip-AVC
Формат видео: MKV
Видео: 706x478 (4:3) @ 706x536, 23.976 fps, AVC, ~1802 Kbps, 0.223 bits/pixel
Аудио 1: Russian, 48.0 KHz, AC3, 2 ch, 192 Kbps - Другое кино
Аудио 2: English, 48.0 KHz, AC3, 2 ch, 384 Kbps

Сравнение

http://cybertorrent.ru/forum/viewtopic.php?t=1795925 NTSC закодированный в PAL, звук так же с раздачи Kardinal2008.
http://screenshotcomparison.com/comparison/131388

MediaInfo

General
Unique ID : 116092543581189407141945774722075532746 (0x57569C504D47509F872DBC01924F1DCA)
Complete name : C:\Monster in the Closet.mkv
Format : Matroska
Format version : Version 4 / Version 2
File size : 1.52 GiB
Duration : 1 h 29 min
Overall bit rate : 2 426 kb/s
Encoded date : UTC 2019-03-04 14:12:21
Writing application : mkvmerge v30.1.0 ('Forever And More') 64-bit
Writing library : libebml v1.3.6 + libmatroska v1.4.9
Video
ID : 1
Format : AVC
Format/Info : Advanced Video Codec
Format profile : High@L3.1
Format settings : CABAC / 12 Ref Frames
Format settings, CABAC : Yes
Format settings, ReFrames : 12 frames
Codec ID : V_MPEG4/ISO/AVC
Duration : 1 h 29 min
Bit rate : 1 848 kb/s
Width : 706 pixels
Height : 478 pixels
Display aspect ratio : 4:3
Original display aspect rat : 4:3
Frame rate mode : Constant
Frame rate : 23.976 (24000/1001) FPS
Color space : YUV
Chroma subsampling : 4:2:0
Bit depth : 8 bits
Scan type : Progressive
Bits/(Pixel*Frame) : 0.228
Stream size : 1.16 GiB (76%)
Writing library : x264 core 120
Encoding settings : cabac=1 / ref=12 / deblock=1:-2:-2 / analyse=0x3:0x133 / me=umh / subme=9 / psy=1 / psy_rd=1.00:0.00 / mixed_ref=1 / me_range=24 / chroma_me=1 / trellis=2 / 8x8dct=1 / cqm=0 / deadzone=21,11 / fast_pskip=0 / chroma_qp_offset=-2 / threads=6 / sliced_threads=0 / nr=0 / decimate=1 / interlaced=0 / bluray_compat=0 / constrained_intra=0 / bframes=9 / b_pyramid=2 / b_adapt=2 / b_bias=0 / direct=3 / weightb=1 / open_gop=0 / weightp=2 / keyint=240 / keyint_min=24 / scenecut=40 / intra_refresh=0 / rc_lookahead=50 / rc=crf / mbtree=1 / crf=19.8 / qcomp=0.60 / qpmin=3 / qpmax=69 / qpstep=4 / ip_ratio=1.40 / aq=1:1.20
Language : English
Default : Yes
Forced : No
Color range : Limited
Color primaries : BT.601 NTSC
Transfer characteristics : BT.709
Matrix coefficients : BT.601
Audio #1
ID : 2
Format : AC-3
Format/Info : Audio Coding 3
Commercial name : Dolby Digital
Codec ID : A_AC3
Duration : 1 h 29 min
Bit rate mode : Constant
Bit rate : 192 kb/s
Channel(s) : 2 channels
Channel layout : L R
Sampling rate : 48.0 kHz
Frame rate : 31.250 FPS (1536 SPF)
Bit depth : 16 bits
Compression mode : Lossy
Stream size : 123 MiB (8%)
Title : Другое кино
Language : Russian
Service kind : Complete Main
Default : Yes
Forced : No
Audio #2
ID : 3
Format : AC-3
Format/Info : Audio Coding 3
Commercial name : Dolby Digital
Codec ID : A_AC3
Duration : 1 h 29 min
Bit rate mode : Constant
Bit rate : 384 kb/s
Channel(s) : 2 channels
Channel layout : L R
Sampling rate : 48.0 kHz
Frame rate : 31.250 FPS (1536 SPF)
Bit depth : 16 bits
Compression mode : Lossy
Stream size : 246 MiB (16%)
Language : English
Service kind : Complete Main
Default : No
Forced : No
Menu
00:00:00.000 : Chapter 1
00:11:03.537 : Chapter 2
00:21:51.268 : Chapter 3
00:25:57.180 : Chapter 4
00:36:42.909 : Chapter 5
00:46:50.766 : Chapter 6
00:51:35.717 : Chapter 7
01:06:22.728 : Chapter 8
01:13:22.231 : Chapter 9

Скриншоты

[cybertorrent.net].t389.torrent 
Торрент: Зарегистрирован [ 2019-03-18 10:04 ] · B1CAD9D3DCDAFB262275673DC635985DD15AE4F0

Скачать .torrent

Скачать

16 KB

Статус: проверено
Скачан: 0 раз
Размер: 1,52 GB
terms.php
Профиль ЛС
Показать сообщения:    

Текущее время: 13-Ноя 17:52

Часовой пояс: UTC ± 0



Вы не можете начинать темы
Вы не можете отвечать на сообщения
Вы не можете редактировать свои сообщения
Вы не можете удалять свои сообщения
Вы не можете голосовать в опросах
Вы не можете прикреплять файлы к сообщениям
Вы можете скачивать файлы