Статистика раздачи
Размер:  2,06 GB   |    Зарегистрирован:  8 месяцев 28 дней   |    Скачан:  0 раз

Полного источника не было: Никогда

 
     
 
 

Гость ®

Пол:
Не указан

Игра Эндера / Ender's Game
Страна: США
Жанр: боевик, приключения, фантастика
Год выпуска: 2013
Продолжительность: 01:53:48

Перевод: Авторский (одноголосый закадровый) Василий Горчаков
Субтитры: нет
Режиссер: Гэвин Худ / Gavin Hood
В ролях: Эйса Баттерфилд, Харрисон Форд, Бен Кингсли, Виола Дэвис, Хейли Стайнфелд, Эбигейл Бреслин, Арамис Найт, Сурадж Партха, Мойзес Ариас
Описание: Альтернативное будущее. Планета все чаще подвергается атакам инопланетных рас. Опасаясь за будущее, руководство страны вынуждено принять необходимые меры. А именно - подготовить достойное поколение специально обученных воинов, которые наконец дадут отпор врагам. Для этой цели они строят школу, куда будут отбирать только самых одаренных детей планеты. В ходе отбора будущих офицеров, внимание руководителей сосредоточено на твердости воли потенциальных учеников. Эндер Виггин производит впечатление на комиссию. На него возлагают большие надежды, потому полковник Графф сразу же очерчивает его статус в школе, как главного ренегата. В краткие сроки Эндер должен впитать в себя основы нужных дисциплин. Так же ему необходимо проявить свои лидерские качества и завоевать авторитет среди других сверстников. Если обучение пройдет успешно, то ему останется отточить полученные навыки на деле, показав учителям и подчиненным весь свой талант....

Сэмпл: http://multi-up.com/1225483
Качество видео: BDRip (Исходник BDRemux 1080p)
Формат видео: AVI
Видео: XviD 73, 720x304, (2,35:1), 23,976 fps, 2131 Кбит/с, 8 бит, 0.32 bit/pixel
Аудио: Русский (АС3, 6 ch (Front: L C R, Side: L R, LFE), 48,0 KHz, 448 Kbps)

MediaInfo

Общее
Полное имя : D:\Фильмы на трекер\Игра Эндера (боевик, приключения, фантастика 2013 год).avi
Формат : AVI
Формат/Информация : Audio Video Interleave
Профиль формата : OpenDML
Размер файла : 2,06 Гбайт
Продолжительность : 1 ч. 53 м.
Общий поток : 2591 Кбит/сек
Программа кодирования : VirtualDubMod 1.5.10.2 (build 2540/release)
Библиотека кодирования : VirtualDubMod build 2540/release
Видео
Идентификатор : 0
Формат : MPEG-4 Visual
Профиль формата : Advanced Simple@L5
Параметр BVOP формата : 2
Параметр QPel формата : Нет
Параметр GMC формата : Без точки перехода
Параметр матрицы формата : Выборочная
Идентификатор кодека : XVID
Идентификатор кодека/Подсказка : XviD
Продолжительность : 1 ч. 53 м.
Битрейт : 2131 Кбит/сек
Ширина : 720 пикселей
Высота : 304 пикселя
Соотношение сторон : 2,35:1
Частота кадров : 23,976 (23976/1000) кадра/сек
Цветовое пространство : YUV
Субдискретизация насыщенности : 4:2:0
Битовая глубина : 8 бит
Тип развёртки : Прогрессивная
Метод сжатия : С потерями
Бит/(Пиксели*Кадры) : 0.406
Размер потока : 1,69 Гбайт (82%)
Библиотека кодирования : XviD 73
Аудио
Идентификатор : 1
Формат : AC-3
Формат/Информация : Audio Coding 3
Расширение режима : CM (complete main)
Параметр Endianness формата : Big
Идентификатор кодека : 2000
Продолжительность : 1 ч. 53 м.
Вид битрейта : Постоянный
Битрейт : 448 Кбит/сек
Каналы : 6 каналов
Расположение каналов : Front: L C R, Side: L R, LFE
Частота : 48,0 КГц
Частота кадров : 31,250 кадров/сек (1536 spf)
Метод сжатия : С потерями
Размер потока : 365 Мбайт (17%)
Выравнивание : Разделение по промежуткам
Продолжительность промежутка : 42 мс. (1,00 видеокадр)
Время предзагрузки промежутка : 500 мс.

Скриншот c названием фильма

Скриншоты

[cybertorrent.net].t388.torrent 
Торрент: Зарегистрирован [ 2019-03-18 10:04 ] · 14E9C9A5322EF8BE61645C9025DF8E268830F4DF

Скачать .torrent

Скачать

11 KB

Статус: проверено
Скачан: 0 раз
Размер: 2,06 GB
terms.php
Показать сообщения:    

Текущее время: 15-Дек 11:44

Часовой пояс: UTC ± 0



Вы не можете начинать темы
Вы не можете отвечать на сообщения
Вы не можете редактировать свои сообщения
Вы не можете удалять свои сообщения
Вы не можете голосовать в опросах
Вы не можете прикреплять файлы к сообщениям
Вы можете скачивать файлы