Статистика раздачи
Размер:  745 MB   |    Зарегистрирован:  6 месяцев 26 дней   |    Скачан:  0 раз

Полного источника не было: Никогда

   
 

Гость ®

Пол:
Не указан

Хроника столичных воров
Год выпуска: 2009
Жанр: криминал
Продолжительность: 01:40:30.000 (150750 frames)
Субтитры: нет
Режиссер: Александр Исупов
В ролях: Евгения Исупова, Александр Ковальчук, Дмитрий Рыбин, Александр Исупов, Вадим Гуриев, Николай Лютов, Владимир Пермяков, Андрей Негинский, Михаил Чудаков
Описание: Молодые люди, Оля и Женя, едут автостопом в Москву. У них одна цель: сделать загранпаспорта и уехать, куда подальше… Вероятно они были замешаны в криминальной истории, так как паспорта она делают нелегально.
Качество: BDRip
Формат: AVI
Видео кодек: XviD
Аудио кодек: МР3
Видео: 688x384 (1.79:1), 25 fps, XviD build 73 ~898 kbps avg, 0.14 bit/pixel
Аудио: 48 kHz, MPEG Layer 3, 2 ch, ~128.00 kbps avg

Скриншоты

Медиаинфо

General
Complete name : E:\004 Мои раздачи\Хроники столичных воров 745\hronika_stolichnyh_vorov_745_by_bm11.avi
Format : AVI
Format/Info : Audio Video Interleave
File size : 745 MiB
Duration : 1h 40mn
Overall bit rate : 1 036 Kbps
Director : bm11
Writing application : VirtualDubMod 1.5.10.3 | www.virtualdub-fr.org || (build 2550/release)
Video
ID : 0
Format : MPEG-4 Visual
Format profile : Advanced Simple@L5
Format settings, BVOP : 1
Format settings, QPel : No
Format settings, GMC : No warppoints
Format settings, Matrix : Custom
Codec ID : XVID
Codec ID/Hint : XviD
Duration : 1h 40mn
Bit rate : 899 Kbps
Width : 688 pixels
Height : 384 pixels
Display aspect ratio : 16:9
Frame rate : 25.000 fps
Color space : YUV
Chroma subsampling : 4:2:0
Bit depth : 8 bits
Scan type : Progressive
Compression mode : Lossy
Bits/(Pixel*Frame) : 0.136
Stream size : 646 MiB (87%)
Writing library : XviD 73
Audio
ID : 1
Format : MPEG Audio
Format version : Version 1
Format profile : Layer 3
Codec ID : 55
Codec ID/Hint : MP3
Duration : 1h 40mn
Bit rate mode : Constant
Bit rate : 128 Kbps
Channel(s) : 2 channels
Sampling rate : 48.0 KHz
Compression mode : Lossy
Stream size : 92.0 MiB (12%)
Alignment : Aligned on interleaves
Interleave, duration : 40 ms (1.00 video frame)
Interleave, preload duratio : 504 ms
Writing library : LAME3.99r
Encoding settings : -m s -V 4 -q 2 -lowpass 17 -b 128
[cybertorrent.net].t383.torrent 
Торрент: Зарегистрирован [ 2019-03-18 10:04 ] · 4F6498259873DE26FA68527C6824819A5274A059

Скачать .torrent

Скачать

15 KB

Статус: проверено
Скачан: 0 раз
Размер: 745 MB
terms.php
Показать сообщения:    

Текущее время: 13-Окт 22:21

Часовой пояс: UTC ± 0



Вы не можете начинать темы
Вы не можете отвечать на сообщения
Вы не можете редактировать свои сообщения
Вы не можете удалять свои сообщения
Вы не можете голосовать в опросах
Вы не можете прикреплять файлы к сообщениям
Вы можете скачивать файлы