Статистика раздачи
Размер:  186 MB   |    Зарегистрирован:  6 месяцев 26 дней   |    Скачан:  0 раз

Полного источника не было: Никогда

   
 

Гость ®

Пол:
Не указан

-Загадки шамана : Shaman's Quest- Год выпуска: 2009-2014
Страна: Россия
Жанр: Короткометражная анимация
Продолжительность: 9 x ~00:02:00
Перевод: Не требуется
субтитры: отсутствуют-Режиссер: Артур Меркулов-Описание: Комедийный анимационный сериал о Туке, отважном «самурае» снежной пустыни. Тук — бесстрашный борец с надвигающимся голодом, потеплением, беспределом пингвинов, «эгоизмом» снежного человека и сварливостью своей жены. Он блюдет порядок и равновесие на краю земли.
-Качество: WEBRip 720p
Формат: MP4
Видео кодек: AVC
Аудио кодек: AAC
Видео: 1280x720, 25 fps, ~2 806 kbps avg, 0.122 bit/pixel
Аудио: 44.1 kHz, 2ch, ~152 kbps avg

MediaInfo

Общее
Полное имя : D:\Shaman's Quest.2009.WEBRip-AVC\Shaman's Quest, part 1.mp4
Формат : MPEG-4
Профиль формата : Base Media
Идентификатор кодека : isom (mp41)
Размер файла : 30,5 Мбайт
Продолжительность : 1 м. 26 с.
Режим общего битрейта : Переменный
Общий поток : 2962 Кбит/сек
Дата кодирования : UTC 2011-03-24 07:47:56
Дата пометки : UTC 2011-03-24 07:47:56
Видео
Идентификатор : 1
Формат : AVC
Формат/Информация : Advanced Video Codec
Профиль формата : Baseline@L4
Настройки формата : 1 Ref Frames
Параметр CABAC формата : Нет
Параметр RefFrames формата : 1 кадр
Параметр GOP формата : M=1, N=12
Идентификатор кодека : avc1
Идентификатор кодека/Информация : Advanced Video Coding
Продолжительность : 1 м. 26 с.
Битрейт : 2806 Кбит/сек
Ширина : 1280 пикселей
Высота : 720 пикселей
Соотношение сторон : 16:9
Режим частоты кадров : Постоянный
Частота кадров : 25,000 кадров/сек
Цветовое пространство : YUV
Субдискретизация насыщенности : 4:2:0
Битовая глубина : 8 бит
Тип развёртки : Прогрессивная
Бит/(Пиксели*Кадры) : 0.122
Размер потока : 28,9 Мбайт (95%)
Дата кодирования : UTC 2011-03-24 07:47:56
Дата пометки : UTC 2011-03-24 07:47:56
Аудио
Идентификатор : 2
Формат : AAC
Формат/Информация : Advanced Audio Codec
Профиль формата : LC
Идентификатор кодека : mp4a-40-2
Продолжительность : 1 м. 26 с.
Вид битрейта : Переменный
Битрейт : 152 Кбит/сек
Каналы : 2 канала
Расположение каналов : Front: L R
Частота : 44,1 КГц
Частота кадров : 43,066 кадра/сек (1024 SPF)
Метод сжатия : С потерями
Размер потока : 1,56 Мбайт (5%)
Дата кодирования : UTC 2011-03-24 07:47:56
Дата пометки : UTC 2011-03-24 07:47:56
[cybertorrent.net].t38.torrent 
Торрент: Зарегистрирован [ 2019-03-18 10:04 ] · 265C320640DB9537C5F65A6C3AB3A4A56BA1A796

Скачать .torrent

Скачать

16 KB

Статус: проверено
Скачан: 0 раз
Размер: 186 MB
terms.php
Показать сообщения:    

Текущее время: 13-Окт 23:14

Часовой пояс: UTC ± 0



Вы не можете начинать темы
Вы не можете отвечать на сообщения
Вы не можете редактировать свои сообщения
Вы не можете удалять свои сообщения
Вы не можете голосовать в опросах
Вы не можете прикреплять файлы к сообщениям
Вы можете скачивать файлы