Статистика раздачи
Размер:  745 MB   |    Зарегистрирован:  7 месяцев 24 дня   |    Скачан:  0 раз

Полного источника не было: Никогда

 
     
 
 

Гость ®

Пол:
Не указан

Ярослав. Тысячу лет назад
Год выпуска: 2010
Жанр: приключения, история
Продолжительность: 01:43:47.397 (149308 frames)
Субтитры: нет
Режиссер: Дмитрий Коробкин
В ролях: Александр Ивашкевич, Алексей Кравченко, Светлана Чуйкина, Валерий Золотухин, Виктор Вержбицкий, Елена Плаксина, Борис Токарев, Владимир Антоник, Юрий Ваксман, Павел Хрулев
Описание: Киевская Русь, начало второго тысячелетия. Ростовские земли полыхают от межплеменных войн. В лесах, по дорогам и рекам хозяйничают разбойничьи ватаги. Разбойники продают людей Хазарам, которые сплавляют рабов в низовья Волги для перепродажи. Чтобы остановить работорговлю молодому Князю Ярославу предстоит объединить земли и народы Ростова. Победить врага можно только преодолев предубеждения и остановив религиозные и этнические конфликты внутри княжества. На месте уничтоженного разбойничьего логова Ярослав основывает город, который позже люди назовут его именем.
Качество: BDRip
Формат: AVI
Видео кодек: XviD
Аудио кодек: МР3
Видео: 688x288 (2.39:1), 23.976 fps, XviD build 73 ~865 kbps avg, 0.18 bit/pixel
Аудио: 48 kHz, MPEG Layer 3, 2 ch, ~128.00 kbps avg

Скриншоты

Медиаинфо

General
Complete name : E:\004 Мои раздачи\Ярослав 745\yaroslav_1000_let_nazad_745_by_bm11.avi
Format : AVI
Format/Info : Audio Video Interleave
File size : 745 MiB
Duration : 1h 43mn
Overall bit rate : 1 003 Kbps
Director : bm11
Writing application : VirtualDubMod 1.5.10.3 | www.virtualdub-fr.org || (build 2550/release)
Video
ID : 0
Format : MPEG-4 Visual
Format profile : Advanced Simple@L5
Format settings, BVOP : 1
Format settings, QPel : No
Format settings, GMC : No warppoints
Format settings, Matrix : Custom
Codec ID : XVID
Codec ID/Hint : XviD
Duration : 1h 43mn
Bit rate : 866 Kbps
Width : 688 pixels
Height : 288 pixels
Display aspect ratio : 2.40:1
Frame rate : 23.976 (23976/1000) fps
Color space : YUV
Chroma subsampling : 4:2:0
Bit depth : 8 bits
Scan type : Progressive
Compression mode : Lossy
Bits/(Pixel*Frame) : 0.182
Stream size : 643 MiB (86%)
Writing library : XviD 73
Audio
ID : 1
Format : MPEG Audio
Format version : Version 1
Format profile : Layer 3
Codec ID : 55
Codec ID/Hint : MP3
Duration : 1h 43mn
Bit rate mode : Constant
Bit rate : 128 Kbps
Channel(s) : 2 channels
Sampling rate : 48.0 KHz
Compression mode : Lossy
Stream size : 95.0 MiB (13%)
Alignment : Aligned on interleaves
Interleave, duration : 42 ms (1.00 video frame)
Interleave, preload duratio : 504 ms
Writing library : LAME3.99r
Encoding settings : -m s -V 4 -q 2 -lowpass 17 -b 128
[cybertorrent.net].t373.torrent 
Торрент: Зарегистрирован [ 2019-03-18 10:04 ] · C1221C9D6DA90EC15600DACF38E766BAC9E01943

Скачать .torrent

Скачать

15 KB

Статус: проверено
Скачан: 0 раз
Размер: 745 MB
terms.php
Показать сообщения:    

Текущее время: 12-Ноя 06:59

Часовой пояс: UTC ± 0



Вы не можете начинать темы
Вы не можете отвечать на сообщения
Вы не можете редактировать свои сообщения
Вы не можете удалять свои сообщения
Вы не можете голосовать в опросах
Вы не можете прикреплять файлы к сообщениям
Вы можете скачивать файлы