Статистика раздачи
Размер:  1,45 GB   |    Зарегистрирован:  7 месяцев 26 дней   |    Скачан:  0 раз

Полного источника не было: Никогда

 
     
 
 

serzh ®

Пол:
Не указан
Стаж:
8 месяцев 1 день
Сообщений:
384

Ужас в опере / Опера / Opera
Страна: Италия, Швейцария
Жанр: ужасы, триллер, детектив
Год выпуска: 1987
Продолжительность: 01:47:13
Перевод: Авторский (одноголосый закадровый) Владимир Штейн
Субтитры: нет
Оригинальная аудиодорожка: нет
Режиссер: Дарио Ардженто / Dario Argento
В ролях: Кристина Марсильяч, Иэн Чарлсон, Урбано Барберини, Дария Николоди, Коралина Катальди-Тассони, Антонелла Витале, Уильям МакНамара, Барбара Куписти, Антонио Иуорио, Карола Станьяро
Описание: После того как оперную приму, исполнявшую главную партию в «Макбете», сбила машина, на ее место назначили молодую и чрезвычайно талантливую певицу Бетти.
Вокруг нее разыгрывается вакханалия кровавых, невероятно жестоких убийств. Таинственный маньяк изо всех сил старается, чтобы очевидцем его злодеяний непременно была Бетти…
Сэмпл: http://multi-up.com/1225242
Качество видео: BDRip (Opera 1987 1080p GBR Blu-ray AVC LPCM 2.0-CrsS)
Формат видео: AVI
Видео: 720x304 (2,35:1), Xvid build 67, 24,000 fps, 1733 kbps, 0.330 bit/pixel
Аудио: AC3, 48 kHz, 2.0, 192 kbps

MediaInfo

General
Complete name : Opera.1987.BDRip.Xvid.avi
Format : AVI
Format/Info : Audio Video Interleave
File size : 1.45 GiB
Duration : 1 h 47 min
Overall bit rate : 1 935 kb/s
Writing application : VirtualDubMod 1.5.10.3 | www.virtualdub-fr.org || (build 2550/release)
Writing library : VirtualDubMod build 2550/release
Video
ID : 0
Format : MPEG-4 Visual
Format profile : Advanced Simple@L5
Format settings, BVOP : 1
Format settings, QPel : No
Format settings, GMC : No warppoints
Format settings, Matrix : Custom
Codec ID : XVID
Codec ID/Hint : XviD
Duration : 1 h 47 min
Bit rate : 1 733 kb/s
Width : 720 pixels
Height : 304 pixels
Display aspect ratio : 2.35:1
Frame rate : 24.000 FPS
Color space : YUV
Chroma subsampling : 4:2:0
Bit depth : 8 bits
Scan type : Progressive
Compression mode : Lossy
Bits/(Pixel*Frame) : 0.330
Stream size : 1.30 GiB (90%)
Writing library : XviD 67
Audio
ID : 1
Format : AC-3
Format/Info : Audio Coding 3
Format settings, Endianness : Big
Codec ID : 2000
Duration : 1 h 47 min
Bit rate mode : Constant
Bit rate : 192 kb/s
Channel(s) : 2 channels
Channel positions : Front: L R
Sampling rate : 48.0 kHz
Frame rate : 31.250 FPS (1536 SPF)
Bit depth : 16 bits
Compression mode : Lossy
Stream size : 147 MiB (10%)
Alignment : Split accross interleaves
Interleave, duration : 42 ms (1.00 video frame)
Interleave, preload duration : 500 ms
Service kind : Complete Main

Скриншоты

[cybertorrent.net].t368.torrent 
Торрент: Зарегистрирован [ 2019-03-18 10:04 ] · 48D9777D4D26AE3997478023FA2662F9684B520B

Скачать .torrent

Скачать

15 KB

Статус: проверено
Скачан: 0 раз
Размер: 1,45 GB
terms.php
Профиль ЛС
Показать сообщения:    

Текущее время: 14-Ноя 06:45

Часовой пояс: UTC ± 0



Вы не можете начинать темы
Вы не можете отвечать на сообщения
Вы не можете редактировать свои сообщения
Вы не можете удалять свои сообщения
Вы не можете голосовать в опросах
Вы не можете прикреплять файлы к сообщениям
Вы можете скачивать файлы