Статистика раздачи
Размер:  61 MB   |    Зарегистрирован:  7 месяцев 30 дней   |    Скачан:  0 раз

Полного источника не было: Никогда

 
     
 
 

Гость ®

Пол:
Не указан

Глиняная авдотка
Страна: СССР
Жанр: мультфильм, сказка
Продолжительность: 00:04:01
Год выпуска: 1984
Режиссёр: Наталья Лось
Описание: Дед - глиняных дел мастер - лепил свистульки в виде птичек-авдоток. Бабка упросила его налепить горшков и скорее увезла те горшки на ярмарку продавать, даже обжига ждать не стала. Прибыль от продажи впрок не пошла...
Качество: WEBRip
Формат: AVI
Видео: 1999 kbps, 720х544 (4:3), 25.000 fps, MPEG-4 Visual (XviD)
Аудио: 96 kbps, 44.1 kHz, 1 channels, MPEG Audio (MP3)
Субтитры: отсутствуют

Подробные технические данные

General
Complete name : Глиняная авдотка (1984).avi
Format : AVI
Format/Info : Audio Video Interleave
File size : 60.6 MiB
Duration : 4mn 1s
Overall bit rate : 2 105 Kbps
Writing application : VirtualDubMod 1.5.10.3 | www.virtualdub-fr.org || (build 2550/release)
Writing library : VirtualDubMod build 2550/release
Video
ID : 0
Format : MPEG-4 Visual
Format profile : Advanced Simple@L5
Format settings, BVOP : 2
Format settings, QPel : No
Format settings, GMC : No warppoints
Format settings, Matrix : Default (H.263)
Codec ID : XVID
Codec ID/Hint : XviD
Duration : 4mn 1s
Bit rate : 1 999 Kbps
Width : 720 pixels
Height : 544 pixels
Display aspect ratio : 4:3
Frame rate : 25.000 fps
Color space : YUV
Chroma subsampling : 4:2:0
Bit depth : 8 bits
Scan type : Progressive
Compression mode : Lossy
Bits/(Pixel*Frame) : 0.204
Stream size : 57.6 MiB (95%)
Writing library : XviD 1.2.1 (UTC 2008-12-04)
Audio
ID : 1
Format : MPEG Audio
Format version : Version 1
Format profile : Layer 3
Codec ID : 55
Codec ID/Hint : MP3
Duration : 4mn 1s
Bit rate mode : Constant
Bit rate : 96.0 Kbps
Channel(s) : 1 channel
Sampling rate : 48.0 KHz
Compression mode : Lossy
Stream size : 2.77 MiB (5%)
Alignment : Aligned on interleaves
Interleave, duration : 40 ms (1.00 video frame)
Interleave, preload duration : 504 ms

Скриншоты

[cybertorrent.net].t359.torrent 
Торрент: Зарегистрирован [ 2019-03-18 10:04 ] · 2941AF4C23DCDA34855E174E3A0013CB38908CA1

Скачать .torrent

Скачать

20 KB

Статус: проверено
Скачан: 0 раз
Размер: 61 MB
terms.php
Показать сообщения:    

Текущее время: 17-Ноя 18:04

Часовой пояс: UTC ± 0



Вы не можете начинать темы
Вы не можете отвечать на сообщения
Вы не можете редактировать свои сообщения
Вы не можете удалять свои сообщения
Вы не можете голосовать в опросах
Вы не можете прикреплять файлы к сообщениям
Вы можете скачивать файлы