Статистика раздачи
Размер:  744 MB   |    Зарегистрирован:  7 месяцев 26 дней   |    Скачан:  0 раз

Полного источника не было: Никогда

 
     
 
 

Гость ®

Пол:
Не указан

Бабушка легкого поведения 2
Страна: Россия
Жанр: комедия
Год выпуска: 2019
Продолжительность: 01:22:09
Субтитры: нет-Режиссер: Марюс Вайсберг-В ролях: Александр Ревва, Глюк'ozа, Марина Федункив, Дмитрий Нагиев, Евгений Герчаков, Елена Валюшкина, Наталья Бардо, Михаил Галустян, Роман Курцын, Мария Горбань, Ирина Бякова, Андрей Родной, Артемий Падалка, Филипп Киркоров, Влад Соколовский-Описание: В продолжении популярной комедии зрителей вновь ждет встреча с обаятельным аферистом Сашей Рубенштейном и командой пенсионеров, которые теперь перебрались в Москву. Но их счастливой жизни приходит конец, когда банк, в котором хранятся все сбережения стариков, банкротит беспринципный олигарх Бородин. Саша и «ОПГ — организованная пенсионная группировка» опять объединяются, чтобы отомстить обидчику.- -Качество видео: WEB-DLRip
Формат видео: AVI
Видео: 688x384 (1.79:1), 25 fps, XviD build 73 ~1128 kbps avg, 0.17 bit/pixel
Аудио: 48 kHz, MPEG Layer 3, 2 ch, ~128.00 kbps avg-[box]Сэмпл[/box]-

MediaInfo

Код:Формат : AVI
Формат/Информация : Audio Video Interleave
Размер файла : 744 Мбайт
Продолжительность : 1 ч. 22 м.
Общий поток : 1266 Кбит/сек
Программа кодирования : VirtualDubMod 1.5.10.3 | www.virtualdub-fr.org || (build 2550/release)
Библиотека кодирования : VirtualDubMod build 2550/release
Видео
Идентификатор : 0
Формат : MPEG-4 Visual
Профиль формата : Advanced Simple@L5
Настройки формата : BVOP1
Параметр BVOP формата : 1
Параметр QPel формата : Нет
Параметр GMC формата : Без точки перехода
Параметр матрицы формата : Default (H.263)
Идентификатор кодека : XVID
Идентификатор кодека/Подсказка : XviD
Продолжительность : 1 ч. 22 м.
Битрейт : 1129 Кбит/сек
Ширина : 688 пикселей
Высота : 384 пикселя
Соотношение сторон : 16:9
Частота кадров : 25,000 кадров/сек
Цветовое пространство : YUV
Субдискретизация насыщенности : 4:2:0
Битовая глубина : 8 бит
Тип развёртки : Прогрессивная
Метод сжатия : С потерями
Бит/(Пиксели*Кадры) : 0.171
Размер потока : 663 Мбайт (89%)
Библиотека кодирования : XviD 73
Аудио
Идентификатор : 1
Формат : MPEG Audio
Версия формата : Version 1
Профиль формата : Layer 3
Идентификатор кодека : 55
Идентификатор кодека/Подсказка : MP3
Продолжительность : 1 ч. 22 м.
Вид битрейта : Постоянный
Битрейт : 128 Кбит/сек
Каналы : 2 канала
Частота : 48,0 КГц
Частота кадров : 41,667 кадра/сек (1152 SPF)
Метод сжатия : С потерями
Размер потока : 75,2 Мбайт (10%)
Выравнивание : Соединение по промежуткам
Продолжительность промежутка : 40 мс. (1,00 видеокадр)
Время предзагрузки промежутка : 504 мс.
Библиотека кодирования : LAME3.99r
Настройки программы : -m s -V 4 -q 2 -lowpass 17 -b 128

Скриншоты


[cybertorrent.net].t356.torrent 
Торрент: Зарегистрирован [ 2019-03-18 10:04 ] · EC26CCB63096CE2428B48F20D90809E7FF923452

Скачать .torrent

Скачать

15 KB

Статус: проверено
Скачан: 0 раз
Размер: 744 MB
terms.php
Показать сообщения:    

Текущее время: 13-Ноя 15:05

Часовой пояс: UTC ± 0



Вы не можете начинать темы
Вы не можете отвечать на сообщения
Вы не можете редактировать свои сообщения
Вы не можете удалять свои сообщения
Вы не можете голосовать в опросах
Вы не можете прикреплять файлы к сообщениям
Вы можете скачивать файлы