Статистика раздачи
Размер:  1,46 GB   |    Зарегистрирован:  7 месяцев 26 дней   |    Скачан:  0 раз

Полного источника не было: Никогда

 
     
 
 

Гость ®

Пол:
Не указан

Счастливого пути
Жанр: Комедия, мелодрама
Год выпуска: 2008
Продолжительность: 01:39:34
Режиссёр: Александр Баршак
В ролях: Дмитрий Миллер, Анна Назарова, Дмитрий Куличков, Александр Пашутин, Людмила Артемьева, Олег Акулич, Павел Баршак, Евгения Бурдихина, Дмитрий Гусев, Валерий Кириллов, Александр Шатохин, Юрий Иванов
Описание: Он – молодой амбициозный юрист. Она - начинающая самоуверенная поп-исполнительница.
Он направляется в Ярославль на заседание суда, и от исхода дела зависит его карьера. Она собирается выступить в Ярославле с концертом.
Вот тут и начинается череда неприятностей и приключений: сначала они опаздывают на поезд, затем их такси попадает в аварию, далее свой путь они продолжают в компании растаманов и дальнобойщиков. При этом они пытаются избавиться друг от друга. Но судьба постоянно сводит их вместе, наверное, это неслучайно...
Доп. информация: Кванты хоть и высокие, но картинка довольно-таки неплохая.

Качество видео: HDTVRip-AVC (большое спасибо Twister Kid)
Формат видео: MKV
Видео: x264, 1024x574, 16:9, 25 fps, 1900 kbps
Аудио: AC3, 48 KHz, 192 kbps, 2 channels

MediaInfo

General
Unique ID : 10073962528689146588568070099277595963 (0x7942CB3315555FDFE2630279CE6453B)
Complete name : E:\My Films\Счастливого_пути_2008.HDTVRip-AVC_by_Indigo-child.mkv
Format : Matroska
Format version : Version 4 / Version 2
File size : 1.46 GiB
Duration : 1h 39mn
Overall bit rate : 2 094 Kbps
Writing application : XviD4PSP 7.0.468 DAILY
Writing library : Lavf57.71.100
ENCODING_INFO : MPEGTS > MKV / H264 > X264 VBR-2P 1900kbps HQ / MP2 > AC3 CBR 192kbps
Video
ID : 1
Format : AVC
Format/Info : Advanced Video Codec
Format profile : High@L4.1
Format settings, CABAC : Yes
Format settings, ReFrames : 12 frames
Codec ID : V_MPEG4/ISO/AVC
Duration : 1h 39mn
Bit rate : 1 900 Kbps
Width : 1 024 pixels
Height : 574 pixels
Display aspect ratio : 16:9
Frame rate mode : Constant
Frame rate : 25.000 fps
Color space : YUV
Chroma subsampling : 4:2:0
Bit depth : 8 bits
Scan type : Progressive
Bits/(Pixel*Frame) : 0.129
Stream size : 1.29 GiB (89%)
Writing library : x264 core 157 r2935 545de2f
Encoding settings : cabac=1 / ref=12 / deblock=1:0:0 / analyse=0x3:0x133 / me=umh / subme=11 / psy=1 / psy_rd=1.00:0.20 / mixed_ref=1 / me_range=32 / chroma_me=1 / trellis=2 / 8x8dct=1 / cqm=0 / deadzone=21,11 / fast_pskip=1 / chroma_qp_offset=-3 / threads=3 / lookahead_threads=1 / sliced_threads=0 / nr=0 / decimate=1 / interlaced=0 / bluray_compat=0 / constrained_intra=0 / bframes=10 / b_pyramid=2 / b_adapt=2 / b_bias=0 / direct=3 / weightb=1 / open_gop=0 / weightp=2 / keyint=250 / keyint_min=25 / scenecut=40 / intra_refresh=0 / rc_lookahead=60 / rc=2pass / mbtree=1 / bitrate=1900 / ratetol=1.0 / qcomp=0.60 / qpmin=0 / qpmax=69 / qpstep=4 / cplxblur=20.0 / qblur=0.5 / ip_ratio=1.40 / aq=2:1.00
Default : Yes
Forced : No
Color range : Limited
Color primaries : BT.709
Transfer characteristics : BT.709
Matrix coefficients : BT.709
Audio
ID : 2
Format : AC-3
Format/Info : Audio Coding 3
Mode extension : CM (complete main)
Format settings, Endianness : Big
Codec ID : A_AC3
Duration : 1h 39mn
Bit rate mode : Constant
Bit rate : 192 Kbps
Channel(s) : 2 channels
Channel positions : Front: L R
Sampling rate : 48.0 KHz
Bit depth : 16 bits
Compression mode : Lossy
Stream size : 137 MiB (9%)
Language : Russian
Default : Yes
Forced : No

x264 log

x264 info: frame I:1011 Avg QP:16.46 size: 80648
x264 info: frame P:37775 Avg QP:19.47 size: 22368
x264 info: frame B:110557 Avg QP:24.16 size: 4442
x264 info: consecutive B-frames: 2.0% 4.3% 8.1% 58.3% 11.1% 8.5% 2.8% 1.6% 0.6% 0.4% 2.3%
x264 info: mb I I16..4: 9.2% 66.9% 23.9%
x264 info: mb P I16..4: 0.9% 8.6% 1.6% P16..4: 29.2% 31.6% 13.1% 3.6% 0.8% skip:10.6%
x264 info: mb B I16..4: 0.1% 1.2% 0.1% B16..8: 32.2% 12.5% 1.6% direct: 2.9% skip:49.4% L0:38.8% L1:48.7% BI:12.6%
x264 info: 8x8 transform intra:77.3% inter:53.1%
x264 info: direct mvs spatial:97.6% temporal:2.4%
x264 info: coded y,uvDC,uvAC intra: 84.7% 71.3% 31.7% inter: 15.9% 11.7% 1.2%
x264 info: i16 v,h,dc,p: 19% 14% 4% 63%
x264 info: i8 v,h,dc,ddl,ddr,vr,hd,vl,hu: 13% 9% 5% 8% 11% 13% 12% 13% 15%
x264 info: i4 v,h,dc,ddl,ddr,vr,hd,vl,hu: 17% 11% 4% 7% 12% 14% 12% 11% 12%
x264 info: i8c dc,h,v,p: 31% 29% 23% 18%
x264 info: Weighted P-Frames: Y:1.1% UV:0.6%
x264 info: ref P L0: 57.1% 12.0% 14.4% 3.7% 3.2% 2.3% 2.1% 1.1% 1.1% 0.9% 1.0% 1.0% 0.0% 0.0%
x264 info: ref B L0: 87.0% 6.4% 2.4% 1.1% 0.8% 0.7% 0.6% 0.4% 0.3% 0.2% 0.1%
x264 info: ref B L1: 97.3% 2.7%
x264 info: kb/s:1898.39
-----------------------------------------------------------
I frames: 1011 frames, size = 80649 / 81536241, quants = 18 / 23.97 / 25
P frames: 37775 frames, size = 22368 / 844951714, quants = 15 / 24.01 / 25
B frames: 110557 frames, size = 4441 / 491072664, quants = 15 / 23.94 / 25
N frames: 149343 frames, size = 9491 / 1417560619, bitrate = 1898kbps

Source vs. Encode



[cybertorrent.net].t333.torrent 
Торрент: Зарегистрирован [ 2019-03-18 10:04 ] · 24D0D251B15CC40110FB7ABF48ED0541501A9F7D

Скачать .torrent

Скачать

15 KB

Статус: проверено
Скачан: 0 раз
Размер: 1,46 GB
terms.php
Показать сообщения:    

Текущее время: 13-Ноя 15:27

Часовой пояс: UTC ± 0



Вы не можете начинать темы
Вы не можете отвечать на сообщения
Вы не можете редактировать свои сообщения
Вы не можете удалять свои сообщения
Вы не можете голосовать в опросах
Вы не можете прикреплять файлы к сообщениям
Вы можете скачивать файлы