Статистика раздачи
Размер:  3,59 GB   |    Зарегистрирован:  8 месяцев 20 дней   |    Скачан:  0 раз

Полного источника не было: Никогда

 
     
 
 

Гость ®

Пол:
Не указан

Не хочу жениться!
Жанр: комедия
Год выпуска: 1993
Продолжительность: 01:21:30
Режиссёр: Сергей Никоненко
В ролях: Евгений Леонов-Гладышев, Светлана Рябова, Михаил Евдокимов, Татьяна Догилева, Татьяна Кравченко, Виктор Ильичёв, Ольга Волкова, Сергей Никоненко, Екатерина Воронина, Светлана Суховей
Описание: Принципиальный холостяк, мастер пластических операций при довольно странных обстоятельствах знакомится с длинноносой милиционершей. Сделав ей операцию, он подобно Пигмалиону, сотворившему Галатею, влюбляется в прекрасное творение рук своих и заявляет: «Я хочу на тебе жениться!»…
Доп. информация: Оцифровка VHS (личный архив) и получение VHSRip alenavova
Эксклюзив для rutracker.org. При размещении данного релиза на других сайтах ссылка на автора alenavova обязательна.
Релиз
Сэмпл: https://yadi.sk/i/2DpCExotc4HS1A
Качество видео: VHSRip
Формат видео: AVI
Видео: MPEG2 Video 720x576 (4:3) 25fps bit rate 6 305 kb/s
Аудио: MPEG Audio 48000Hz 192kbps

MediaInfo

Не хочу жениться [by alenavova].mpg
Format : MPEG-PS
File size : 3.59 GiB
Duration : 1 h 21 min
Overall bit rate mode : Variable
Overall bit rate : 6 305 kb/s
Writing library : (dvd5: Oct 27 2015)
Video
ID : 224 (0xE0)
Format : MPEG Video
Format version : Version 2
Format profile : Main@Main
Format settings : CustomMatrix / BVOP
Format settings, BVOP : Yes
Format settings, Matrix : Custom
Format settings, GOP : M=3, N=15
Duration : 1 h 21 min
Bit rate mode : Variable
Bit rate : 6 000 kb/s
Width : 720 pixels
Height : 576 pixels
Display aspect ratio : 4:3
Frame rate : 25.000 FPS
Standard : PAL
Color space : YUV
Chroma subsampling : 4:2:0
Bit depth : 8 bits
Scan type : Progressive
Compression mode : Lossy
Bits/(Pixel*Frame) : 0.579
Time code of first frame : 00:00:00:00
Time code source : Group of pictures header
GOP, Open/Closed : Open
Stream size : 3.41 GiB (95%)
Writing library : (dvd5: Oct 27 2015)
Audio
ID : 192 (0xC0)
Format : MPEG Audio
Format version : Version 1
Format profile : Layer 2
Duration : 1 h 21 min
Bit rate mode : Constant
Bit rate : 192 kb/s
Channel(s) : 2 channels
Sampling rate : 48.0 kHz
Frame rate : 41.667 FPS (1152 SPF)
Compression mode : Lossy
Delay relative to video : -80 ms
Stream size : 112 MiB (3%)
Menu

Скриншоты


[cybertorrent.net].t330.torrent 
Торрент: Зарегистрирован [ 2019-03-18 10:04 ] · 1753979F29EA16789FF6406D1364C5470F8165B2

Скачать .torrent

Скачать

18 KB

Статус: проверено
Скачан: 0 раз
Размер: 3,59 GB
terms.php
Показать сообщения:    

Текущее время: 07-Дек 19:01

Часовой пояс: UTC ± 0



Вы не можете начинать темы
Вы не можете отвечать на сообщения
Вы не можете редактировать свои сообщения
Вы не можете удалять свои сообщения
Вы не можете голосовать в опросах
Вы не можете прикреплять файлы к сообщениям
Вы можете скачивать файлы