Статистика раздачи
Размер:  1,09 GB   |    Зарегистрирован:  8 месяцев 23 дня   |    Скачан:  0 раз

Полного источника не было: Никогда

 
     
 
 

Гость ®

Пол:
Не указан

Приключения Элли и Рару Год выпуска: 1987.
Жанр: Приключения, детский.
Продолжительность: 01:15:03.
Язык: Грузинский.
Перевод: Субтитры.
Режиссер: Гурам Петриашвили.
В ролях:
Нино Мейшвили, Зураб Кипшидзе, Русудан Кикнадзе, Руслан Микаберидзе, Юрий Васадзе, Шота Кристесашвили, Лия (Лиа) Капанадзе, Гиви Сихарулидзе, Эдишер Магалашвили, Берта Хапава, Имеди (Имедо) Кахиани, Паата Бараташвили, Палико (Павел) Нозадзе, Михаил Джоджуа, Эдишер Закариадзе.
Описание:
Однажды директору зоопарка городка Олиппо таинственный незнакомец подарил маленького пони Рару, уверив, что это небыкновенная лошадка может творить чудеса. Но пони сразу же разочаровал всех служителей зоопарка, кроме девочки Элли, которая, став его единственной защитницей, отправилась с ним в далекий город Оринчо на поиски прекрасной певицы Наяны. Девочка надеялась, что красота актрисы поможет пони вернуть волшебный дар. Вскоре беглецов начали преследовать Черные парни. Но когда злодеи догнали Элли и Рару, то сразу стали добрыми и веселыми...
Доп. информация:
Страна: СССР .
Киностудия: Грузия-фильм.
Автор сценария: Гурам Петриашвили.
Оператор: Николос Сухишвили.
Композитор: Александр Раквиашвили.
Художник: Реваз Мирзашвили.

Релиз
Рип sharky.
Перевод и создание субтитров
gbakh.

Качество: WEB-DLRip
Формат: AVI
Видео: 704x304 (2.32:1), 25 fps, XviD build 50 ~1876 kbps avg, 0.35 bit/pixel
Аудио: 48 kHz, AC3 Dolby Digital, 2/0 (L,R) ch, ~192 kbps

Образец субтитров

30
00:07:29,620 --> 00:07:32,940
Хорошо, но ты же знаешь
в действительности...
31
00:07:33,500 --> 00:07:37,610
Знаю, как не знать. Дай поговорить с ней.
- Ладно.
32
00:07:38,780 --> 00:07:41,420
Иди Элли, с дядей Викентием поговори.
33
00:07:47,860 --> 00:07:50,960
Здравствуй дядя Викентий,
как ты поживаешь?
34
00:07:51,020 --> 00:07:55,180
По правде - не очень.
- Почему?
35
00:07:56,070 --> 00:07:59,210
Трудно мне очень.
Хочу, чтобы ты разыграла будто
36
00:07:59,210 --> 00:08:01,650
Разыграла?
- Будто с пони разговариваешь.
37
00:08:02,860 --> 00:08:05,650
Я знаю, что ты не любишь лгать.
38
00:08:05,750 --> 00:08:10,110
Нет дядя Викентий, я лгать не могу.
- Хорошо дочка.
39
00:08:10,650 --> 00:08:13,030
Хорошо, ничего не поделаешь.
40
00:08:13,600 --> 00:08:16,090
Дядя Викентий.
- Я тебя слушаю...
41
00:08:16,660 --> 00:08:19,540
Что случится если я не поговорю с пони?
42
00:08:20,210 --> 00:08:23,620
Снимут меня.
- Из-за этого?
43
00:08:24,220 --> 00:08:27,010
Да, Гиги не любит когда
не исполняют его желания.
44
00:08:29,520 --> 00:08:32,040
Во первых, вместо меня
директором Коку назначит.
45
00:08:32,660 --> 00:08:35,500
А Кока животных не любит, во вторых...
- Хорошо дядя Викентий.
46
00:08:35,950 --> 00:08:39,450
Я согласна.
- Правда?
47
00:08:40,210 --> 00:08:45,600
Спасибо Элли! Сию минуту
примчусь на своей машине.
48
00:08:45,690 --> 00:08:49,240
Батоно Гиги, пусть счастливым
будет ваше появление здесь.
49
00:08:50,070 --> 00:08:52,550
Это лично от меня.

Отчет MI

General
Complete name : Priklyu4eniya.Elli.i.Raru.1987.XviD.WEB-DLRip.fenixclub\Priklyu4eniya.Elli.i.Raru.1987.XviD.WEB-DLRip.fenixclub.avi
Format : AVI
Format/Info : Audio Video Interleave
File size : 1.09 GiB
Duration : 1h 15mn
Overall bit rate : 2 078 Kbps
Writing application : VirtualDubMod 1.5.10.3 | www.virtualdub-fr.org || (build 2550/release)
Writing library : VirtualDubMod build 2550/release
Video
ID : 0
Format : MPEG-4 Visual
Format profile : Advanced Simple@L5
Format settings, BVOP : 1
Format settings, QPel : No
Format settings, GMC : No warppoints
Format settings, Matrix : Default (MPEG)
Codec ID : DX50
Codec ID/Hint : DivX 5
Duration : 1h 15mn
Bit rate : 1 876 Kbps
Width : 704 pixels
Height : 304 pixels
Display aspect ratio : 2.35:1
Frame rate : 25.000 fps
Color space : YUV
Chroma subsampling : 4:2:0
Bit depth : 8 bits
Scan type : Progressive
Compression mode : Lossy
Bits/(Pixel*Frame) : 0.351
Stream size : 1 007 MiB (90%)
Writing library : XviD 1.2.1 (UTC 2008-12-04)
Audio
ID : 1
Format : AC-3
Format/Info : Audio Coding 3
Mode extension : CM (complete main)
Format settings, Endianness : Big
Codec ID : 2000
Duration : 1h 15mn
Bit rate mode : Constant
Bit rate : 192 Kbps
Channel(s) : 2 channels
Channel positions : Front: L R
Sampling rate : 48.0 KHz
Frame rate : 31.250 fps (1536 spf)
Compression mode : Lossy
Stream size : 103 MiB (9%)
Alignment : Split accross interleaves
Interleave, duration : 40 ms (1.00 video frame)
Interleave, preload duratio : 500 ms

Скриншоты


[cybertorrent.net].t33.torrent 
Торрент: Зарегистрирован [ 2019-03-18 10:04 ] · 806A40308AB00B7DC8A6A29466111F1A4411020B

Скачать .torrent

Скачать

12 KB

Статус: проверено
Скачан: 0 раз
Размер: 1,09 GB
terms.php
Показать сообщения:    

Текущее время: 11-Дек 07:06

Часовой пояс: UTC ± 0



Вы не можете начинать темы
Вы не можете отвечать на сообщения
Вы не можете редактировать свои сообщения
Вы не можете удалять свои сообщения
Вы не можете голосовать в опросах
Вы не можете прикреплять файлы к сообщениям
Вы можете скачивать файлы