Статистика раздачи
Размер:  1,45 GB   |    Зарегистрирован:  5 месяцев 13 дней   |    Скачан:  0 раз
Сидов:  47  [  0 KB/s  ]   Личеров:  2  [  0 KB/s  ]  
 
     
 
 

Гость ®

Пол:
Не указан

Ядовитая роза / The Poison Rose- Год выхода: 2019
Страна: США, Италия
Жанр: триллер
Продолжительность: 01:37:32
Перевод: Любительский (многоголосый закадровый) HDRezka Studio
Субтитры: нет
Оригинальная аудиодорожка: Английская-Режиссер:
Франческо Синкуемани / Francesco Cinquemani, Джордж Галло / George Gallo, Лука Гилиберто / Luca Giliberto-В ролях:
Джон Траволта, Морган Фримен, Брендан Фрейзер, Фамке Янссен, Петер Стормаре, Роберт Патрик, Клаудия Джерини, Кэт Грэхэм, Элла Блю Траволта, Ник Валлелонга-О фильме:
Карсон Филипс в прошлом — звезда футбола, теперь — частный детектив. В его руки попадает простое, на первый взгляд, дело о пропавших без вести. Но расследование принимает неожиданный поворот: в запутанной череде жестоких преступлений замешана его дочь, которая давно бесследно исчезла.-Релиз групп | | IMDB | КиноПоиск | Сэмпл |-Качество: WEB-DLRip
Формат: AVI
Видео: 720x304 (2.37:1), 23.976 fps, XviD build 67 ~1736 kbps avg, 0.33 bit/pixel
Аудио #1: 48 kHz, AC3 Dolby Digital, 2/0 (L,R) ch, ~192 kbps avg (RUS)
Аудио #2: 48 kHz, AC3 Dolby Digital, 2/0 (L,R) ch, ~192 kbps avg (ENG)-

Скриншоты

-

MediaInfo

Код:Полное имя : G:\Yadovitaya_Roza_2019_WEB-DLRip_MVO_by_Dalemake.avi
Формат : AVI
Формат/Информация : Audio Video Interleave
Размер файла : 1,45 Гбайт
Продолжительность : 1 ч. 37 м.
Общий поток : 2135 Кбит/сек
Программа кодирования : VirtualDubMod 1.5.10.3 | www.virtualdub-fr.org || (build 2550/release)
Библиотека кодирования : VirtualDubMod build 2550/release
Видео
Идентификатор : 0
Формат : MPEG-4 Visual
Профиль формата : Advanced Simple@L5
Параметр BVOP формата : 1
Параметр QPel формата : Нет
Параметр GMC формата : Без точки перехода
Параметр матрицы формата : Выборочная
Идентификатор кодека : XVID
Идентификатор кодека/Подсказка : XviD
Продолжительность : 1 ч. 37 м.
Битрейт : 1737 Кбит/сек
Ширина : 720 пикселей
Высота : 304 пикселя
Соотношение сторон : 2,35:1
Частота кадров : 23,976 кадра/сек
Цветовое пространство : YUV
Субдискретизация насыщенности : 4:2:0
Битовая глубина : 8 бит
Тип развёртки : Прогрессивная
Метод сжатия : С потерями
Бит/(Пиксели*Кадры) : 0.331
Размер потока : 1,18 Гбайт (81%)
Библиотека кодирования : XviD 67
Аудио #1
Идентификатор : 1
Формат : AC-3
Формат/Информация : Audio Coding 3
Расширение режима : CM (complete main)
Параметр Endianness формата : Big
Идентификатор кодека : 2000
Продолжительность : 1 ч. 37 м.
Вид битрейта : Постоянный
Битрейт : 192 Кбит/сек
Каналы : 2 канала
Расположение каналов : Front: L R
Частота : 48,0 КГц
Метод сжатия : С потерями
Размер потока : 134 Мбайт (9%)
Выравнивание : Разделение по промежуткам
Продолжительность промежутка : 42 мс. (1,00 видеокадр)
Время предзагрузки промежутка : 500 мс.
Аудио #2
Идентификатор : 2
Формат : AC-3
Формат/Информация : Audio Coding 3
Расширение режима : CM (complete main)
Параметр Endianness формата : Big
Идентификатор кодека : 2000
Продолжительность : 1 ч. 37 м.
Вид битрейта : Постоянный
Битрейт : 192 Кбит/сек
Каналы : 2 канала
Расположение каналов : Front: L R
Частота : 48,0 КГц
Метод сжатия : С потерями
Размер потока : 134 Мбайт (9%)
Выравнивание : Разделение по промежуткам
Продолжительность промежутка : 42 мс. (1,00 видеокадр)
Время предзагрузки промежутка : 500 мс.
-
[cybertorrent.net].t3237.torrent 
Торрент: Зарегистрирован [ 2019-05-30 16:49 ] · D02AB601E582FE4C650AF6678520DA5BD3DE6970

Скачать .torrent

Скачать

15 KB

Статус: проверено
Скачан: 0 раз
Размер: 1,45 GB
terms.php
Показать сообщения:    

Текущее время: 13-Ноя 00:06

Часовой пояс: UTC ± 0



Вы не можете начинать темы
Вы не можете отвечать на сообщения
Вы не можете редактировать свои сообщения
Вы не можете удалять свои сообщения
Вы не можете голосовать в опросах
Вы не можете прикреплять файлы к сообщениям
Вы можете скачивать файлы