Статистика раздачи
Размер:  1,38 GB   |    Зарегистрирован:  5 месяцев 15 дней   |    Скачан:  0 раз

Полного источника не было: Никогда

 
     
 
 

солнышко ®

Пол:
Не указан
Стаж:
8 месяцев 2 дня
Сообщений:
565

Маленькая мисс Дулиттл / Лилиан Сусвинд - приключение с животными / Liliane Susewind - Ein tierisches Abenteuer
Страна: Германия
Жанр: Семейный, фэнтези
Год выпуска: 2018
Продолжительность: 01:36:21
Перевод: Любительский (многоголосый закадровый) Синема УС
Субтитры: нет
Режиссер: Йоахим Масаннек / Joachim Masannek
В ролях: Пери Баумейстер, Айлин Тецель, Кристоф Мария Хербст, Мерет Беккер, Том Бек, Малу Ляйхер, Аарон Кисёв, Фелис Аренс, Бюргер Ларс Дитрих
Описание: Рыжеволосая девочка Лилиан хранит невероятную тайну – она умеет разговаривать с животными. Эта способность много раз становилась причиной недоразумений и проблем для всей ее семьи. Но после переезда в другой город у Лили, наконец, появляются друзья, которым она может доверять. Ее удивительный дар станет единственной надеждой на спасение слоненка, похищенного из зоопарка.
Доп. информация: Без рекламы
от 6 лет
Сэмпл: https://www.sendspace.com/file/yzd4db
Качество видео: HDRip
Формат видео: AVI
Видео: XviD, 720 х 304 пикс, 23,976 кадра/сек, ~ 1850 Кбит/сек, 0.352 Бит/(Пиксели*Кадры)
Аудио: MP3, 48,0 КГц, 192 Кбит/сек Постоянный, 2 канала

MediaInfo

Общее
Полное имя : C:\фильмы\02 возможно для раздачи\Маленькая мисс Дулиттл 2018г\Маленькая мисс Дулиттл (2018г).avi
Формат : AVI
Формат/Информация : Audio Video Interleave
Размер файла : 1,38 Гбайт
Продолжительность : 1 ч. 36 м.
Общий поток : 2052 Кбит/сек
Видео
Идентификатор : 0
Формат : MPEG-4 Visual
Профиль формата : Advanced Simple@L4
Параметр BVOP формата : Нет
Параметр QPel формата : Нет
Параметр GMC формата : Без точки перехода
Параметр матрицы формата : Default (H.263)
Идентификатор кодека : XVID
Идентификатор кодека/Подсказка : XviD
Продолжительность : 1 ч. 36 м.
Битрейт : 1847 Кбит/сек
Ширина : 720 пикселей
Высота : 304 пикселя
Соотношение сторон : 2,35:1
Частота кадров : 23,976 кадра/сек
Цветовое пространство : YUV
Субдискретизация насыщенности : 4:2:0
Битовая глубина : 8 бит
Тип развёртки : Прогрессивная
Метод сжатия : С потерями
Бит/(Пиксели*Кадры) : 0.352
Размер потока : 1,24 Гбайт (90%)
Аудио
Идентификатор : 1
Формат : MPEG Audio
Версия формата : Version 1
Профиль формата : Layer 3
Идентификатор кодека : 55
Идентификатор кодека/Подсказка : MP3
Продолжительность : 1 ч. 36 м.
Вид битрейта : Постоянный
Битрейт : 192 Кбит/сек
Каналы : 2 канала
Частота : 48,0 КГц
Метод сжатия : С потерями
Размер потока : 132 Мбайт (9%)
Выравнивание : Разделение по промежуткам
Продолжительность промежутка : 24 мс. (0,58 видеокадр)

Скриншоты и скриншот названия


Предыдущие или аналогичные раздачи

все раздачи "доктор Дулиттл" (много)

Источник рипа

исходник взял в кинозал.тв
Огромное спасибо раздающему zeka80 !!
За отсутствие рекламы отдельное Огромное спасибо!!

форум "фильмы о собаках и волках"

https://cybertorrent.ru/viewtopic.php?t=1144862
[cybertorrent.net].t3231.torrent 
Торрент: Зарегистрирован [ 2019-05-30 16:49 ] · D539CC9818D74760F08C7B0609886051B6AADD6B

Скачать .torrent

Скачать

14 KB

Статус: проверено
Скачан: 0 раз
Размер: 1,38 GB
terms.php
Профиль ЛС
Показать сообщения:    

Текущее время: 14-Ноя 17:24

Часовой пояс: UTC ± 0



Вы не можете начинать темы
Вы не можете отвечать на сообщения
Вы не можете редактировать свои сообщения
Вы не можете удалять свои сообщения
Вы не можете голосовать в опросах
Вы не можете прикреплять файлы к сообщениям
Вы можете скачивать файлы