Статистика раздачи
Размер:  1,76 GB   |    Зарегистрирован:  5 месяцев 12 дней   |    Скачан:  0 раз

Полного источника не было: Никогда

 
     
 
 

serzh ®

Пол:
Не указан
Стаж:
7 месяцев 30 дней
Сообщений:
384

9 смертей ниндзя / Nine Deaths of the Ninja
Страна: США
Жанр: боевик
Год выпуска: 1985
Продолжительность: 01:33:39
Перевод: Профессиональный (многоголосый закадровый) CP Digital
Субтитры: нет
Оригинальная аудиодорожка: нет
Режиссер: Эммет Олстон / Emmett Alston
В ролях: Сё Косуги, Брент Хафф, Эмилия Кроу, Блэкки Дэммет, Реджина Ричардсон, Виджай Амритрадж
Описание: Во время визита в Азию похищены конгрессмен США и большая группа туристов, террористы требуют освобождения из тюрем опасных преступников, связанных с наркобизнесом. Конфликт международного масштаба поручено разрешить группе высококлассных бойцов — экспертов по борьбе с терроризмом. Руководитель группы Спайк Шиноби, его верный помощник Стив Гордон и соблазнительная агент Дженнифер Барс разрабатывают виртуозный план освобождения заложников.
Доп. информация:
Видеоряд с зарубежного трекера rarbg.
Звуковая дорожка с переводом CP Digital взята из этого релиза https://cybertorrent.ru/viewtopic.php?t=4502152.
За синхронизацию звуковой дорожки огромная благодарность ale_x2008.
Сэмпл: https://www.sendspace.com/file/rh60bj
Качество видео: HDRip-AVC
Формат видео: MKV
Видео: 1920x722, 23.976 fps, AVC, 2500 Kbps
Аудио: 48 KHz, AC3, 2 ch (mono), 192 Kbps

MediaInfo

General
Unique ID : 225840894638710773459531164520320595207 (0xA9E75FC94A348FB398ACAEA9B66BF507)
Complete name : C:\Users\Сергей\Downloads\9 смертей ниндзя.mkv
Format : Matroska
Format version : Version 2
File size : 1.76 GiB
Duration : 1h 33mn
Overall bit rate : 2 694 Kbps
Encoded date : UTC 2019-05-29 13:15:02
Writing application : mkvmerge v5.4.0 ('Piper') built on Mar 10 2012 13:34:39
Writing library : libebml v1.2.3 + libmatroska v1.3.0
Video
ID : 1
Format : AVC
Format/Info : Advanced Video Codec
Format profile : High@L4.1
Format settings, CABAC : Yes
Format settings, ReFrames : 4 frames
Codec ID : V_MPEG4/ISO/AVC
Duration : 1h 33mn
Bit rate : 2 500 Kbps
Width : 1 920 pixels
Height : 722 pixels
Display aspect ratio : 2.659
Frame rate mode : Constant
Frame rate : 23.976 fps
Color space : YUV
Chroma subsampling : 4:2:0
Bit depth : 8 bits
Scan type : Progressive
Bits/(Pixel*Frame) : 0.075
Stream size : 1.60 GiB (91%)
Writing library : x264 core 152 r2851M ba24899
Encoding settings : cabac=1 / ref=4 / deblock=1:-1:-1 / analyse=0x3:0x113 / me=umh / subme=9 / psy=1 / psy_rd=1.00:0.15 / mixed_ref=1 / me_range=24 / chroma_me=1 / trellis=2 / 8x8dct=1 / cqm=0 / deadzone=21,11 / fast_pskip=1 / chroma_qp_offset=-3 / threads=32 / lookahead_threads=4 / sliced_threads=0 / nr=0 / decimate=1 / interlaced=0 / bluray_compat=0 / constrained_intra=0 / bframes=3 / b_pyramid=2 / b_adapt=2 / b_bias=0 / direct=3 / weightb=1 / open_gop=0 / weightp=2 / keyint=250 / keyint_min=25 / scenecut=40 / intra_refresh=0 / rc_lookahead=50 / rc=2pass / mbtree=1 / bitrate=2500 / ratetol=1.0 / qcomp=0.60 / qpmin=0 / qpmax=69 / qpstep=4 / cplxblur=20.0 / qblur=0.5 / vbv_maxrate=31250 / vbv_bufsize=31250 / nal_hrd=none / filler=0 / ip_ratio=1.40 / aq=3:1.00
Default : Yes
Forced : No
Audio
ID : 2
Format : AC-3
Format/Info : Audio Coding 3
Mode extension : CM (complete main)
Format settings, Endianness : Big
Codec ID : A_AC3
Duration : 1h 33mn
Bit rate mode : Constant
Bit rate : 192 Kbps
Channel(s) : 2 channels
Channel positions : Front: L R
Sampling rate : 48.0 KHz
Bit depth : 16 bits
Compression mode : Lossy
Stream size : 129 MiB (7%)
Title : MVO
Language : Russian
Default : Yes
Forced : No

Скриншоты

[cybertorrent.net].t3226.torrent 
Торрент: Зарегистрирован [ 2019-05-30 16:49 ] · 92A5D036C94D284826C3F3CCB95A67CCB9B3B1B6

Скачать .torrent

Скачать

18 KB

Статус: проверено
Скачан: 0 раз
Размер: 1,76 GB
terms.php
Профиль ЛС
Показать сообщения:    

Текущее время: 12-Ноя 06:48

Часовой пояс: UTC ± 0



Вы не можете начинать темы
Вы не можете отвечать на сообщения
Вы не можете редактировать свои сообщения
Вы не можете удалять свои сообщения
Вы не можете голосовать в опросах
Вы не можете прикреплять файлы к сообщениям
Вы можете скачивать файлы