Статистика раздачи
Размер:  1,46 GB   |    Зарегистрирован:  5 месяцев 22 дня   |    Скачан:  0 раз

Полного источника не было: Никогда

 
     
 
 

karlll ®

Пол:
Не указан
Стаж:
8 месяцев 9 дней
Сообщений:
171

Астерикс завоевывает Америку / Asterix et les indiens / Asterix in America / Asterix Conquers America
Страна: Германия, Франция
Жанр: мультфильм, комедия, приключения, семейный
Продолжительность: 01:24:45
Год выпуска: 1994
Перевод: Профессиональный (многоголосый закадровый) Новый Канал
Русские субтитры: нет
Режиссёр: Герхард Хан / Gerhard Hahn
Роли озвучивали: Роже Карель, Пьер Торнад, Анри Лабюсьер, Franзois Chaix, Michel Tugot-Doris, Жан Дортрэмэ, Робер Парти, Jean-Luc Galmiche, Оливье Янкович, Натали Спитцер
Описание: «Вчера будет завтра позавчера» — так говаривали мудрецы-друиды в далекие-далекие времена, когда люди считали, что Земля больше всего похожа на пиццу. Тогда был еще жив Юлий Цезарь, которому и пришла в голову мысль, как римлянам победить свободолюбивых друидов, проживавших в маленькой галльской деревушке.
По приказу императора центурион Люций похитил друида Починикса и отправил его вместе с псом Догматиксом на край света. Но за ними следом увязалась славная парочка Астерикс и Обеликс…
Доп. информация: Старая многоголосая озвучка с украинского ТВ. Транслировалась по нескольким телеканалам, таким как Новый Канал, ТРК Украина и ICTV в период с 2001 по 2006 год.
Синхронизация и релиз: nLboOm
К сожалению, телевизионщики как-то умудрились накосячить во время озвучивания, в результате чего оригинальная дорожка переодически начинает двоиться, это хорошо заметно в семпле. При этом, голоса русскоязычного закадра звучат нормально.
Не могу сказать, был ли на ТВ когда-то показан исправленный вариант.
Семпл: https://cloud.mail.ru/public/LYyV/2qj3gMPW2
Качество: BDRip. Видео взял отсюда
Формат: AVI
Видео: 720x384 (1.85:1), 23.976 fps, XviD build 50 ~2260 kbps avg, 0.34 bit/pixel
Аудио: AC3 Dolby Digital, 48 kHz, 2 ch, 192 kbps avg RUS
Субтитры: отсутствуют

Подробные технические данные

General
Format : AVI
Format/Info : Audio Video Interleave
File size : 1.46 GiB
Duration : 1 h 24 min
Overall bit rate : 2 461 kb/s
Writing application : VirtualDubMod 1.5.10.2 (build 2542/release)
Writing library : VirtualDubMod build 2542/release
Video
ID : 0
Format : MPEG-4 Visual
Format profile : Advanced Simple@L5
Format settings, BVOP : 1
Format settings, QPel : No
Format settings, GMC : No warppoints
Format settings, Matrix : Default (H.263)
Codec ID : XVID
Codec ID/Hint : XviD
Duration : 1 h 24 min
Bit rate : 2 260 kb/s
Width : 720 pixels
Height : 384 pixels
Display aspect ratio : 1.85:1
Frame rate : 23.976 (24000/1001) FPS
Color space : YUV
Chroma subsampling : 4:2:0
Bit depth : 8 bits
Scan type : Progressive
Compression mode : Lossy
Bits/(Pixel*Frame) : 0.341
Stream size : 1.34 GiB (92%)
Writing library : XviD 1.2.1 (UTC 2008-12-04)
Audio
ID : 1
Format : AC-3
Format/Info : Audio Coding 3
Format settings, Endianness : Big
Codec ID : 2000
Duration : 1 h 24 min
Bit rate mode : Constant
Bit rate : 192 kb/s
Channel(s) : 2 channels
Channel positions : Front: L R
Sampling rate : 48.0 kHz
Frame rate : 31.250 FPS (1536 SPF)
Bit depth : 16 bits
Compression mode : Lossy
Stream size : 116 MiB (8%)
Alignment : Split accross interleaves
Interleave, duration : 42 ms (1.00 video frame)
Interleave, preload duratio : 500 ms
Service kind : Complete Main

Скриншоты


[cybertorrent.net].t3224.torrent 
Торрент: Зарегистрирован [ 2019-05-30 16:49 ] · 9BFC8EC87C7CFBD8FBC1655F990598D0D4273744

Скачать .torrent

Скачать

15 KB

Статус: проверено
Скачан: 0 раз
Размер: 1,46 GB
terms.php
Профиль [ЛС]
Показать сообщения:    

Текущее время: 22-Ноя 05:28

Часовой пояс: UTC ± 0



Вы не можете начинать темы
Вы не можете отвечать на сообщения
Вы не можете редактировать свои сообщения
Вы не можете удалять свои сообщения
Вы не можете голосовать в опросах
Вы не можете прикреплять файлы к сообщениям
Вы можете скачивать файлы