Статистика раздачи
Размер:  7,93 GB   |    Зарегистрирован:  5 месяцев 20 дней   |    Скачан:  0 раз

Полного источника не было: Никогда

 
     
 
 

Гость ®

Пол:
Не указан

Всё могло быть иначе
Год выпуска: 2019
Производство: Россия, Паламеда Продакшн
Жанр: Мелодрама
Продолжительность: 12 x ~ 00:53:00
Субтитры: Нет
Режиссёр: Глеб Якубовский
В ролях: Татьяна Бабенкова, Денис Васильев, Ангелина Поплавская, Алёна Хмельницкая, Артур Сопельник, Олег Масленников-Войтов, Александр Макогон, Виталий Егоров, Андрей Сенькин, Борис Невзоров, Никита Лобанов, Вероника Норина, Дмитрий Егоров (III), Олег Ткачёв, Вероника Пляшкевич, Сергей Чуб, Максим Брагинец, Дмитрий Пустильник, Дмитрий Абазовик, Евгений Казакевич, Евгений Никитин, Сергей Власов (II), Дмитрий Гурбанович, Игорь Денисов, Лариса Маршалова, Андрей Новик, Максим Кречетов, Светлана Аникей
Описание: В начале 90-х годов в провинциальном городке Татьяна неожиданно рожает тройняшек. Женщина вынуждена забрать только одну девочку, Машу, оставив остальных в роддоме. Вторую малышку, Юлю, забирает Ольга, которая снова родила мертвого ребенка. А третью девочку, Нику, удочеряет богатая московская пара. 20 лет спустя чудовищное стечение обстоятельств сталкивает сестер Машу и Нику, не подозревающих о существовании друг друга, в ДТП на дороге. Маша погибает на месте, а Ника, севшая пьяной за руль, сбегает. Жених Маши, Влад, клянется разыскать и посадить убийцу своей невесты…
Релиз группа
Реклама: Сторонней рекламы нет!
Все раздачи сериала Всё могло быть иначе


Качество: WEBRip
Формат: AVI
Видео кодек: XviD
Аудио кодек: AC3
Видео: 720x384 (1.80:1), 25 fps, XviD build 73 ~1600 kbps avg, 0.231 bit/pixel
Аудио: 48 kHz, AC3 Dolby Digital, 2/0 (L,R) ch, ~192 kbps

Скриншоты

MediaInfo

General
Complete name : H:\fiiles x\ Все могло быть иначе.2019.WEB-DLRip. Files-x\04. Все могло быть иначе.2019.WEB-DLRip. Files-x.avi
Format : AVI
Format/Info : Audio Video Interleave
File size : 701 MiB
Duration : 54mn 23s
Overall bit rate : 1 802 Kbps
Writing application : VirtualDubMod 1.5.10.3 | www.virtualdub-fr.org || (build 2550/release)
Writing library : VirtualDubMod build 2550/release
Video
ID : 0
Format : MPEG-4 Visual
Format profile : Advanced Simple@L5
Format settings, BVOP : 1
Format settings, QPel : No
Format settings, GMC : No warppoints
Format settings, Matrix : Custom
Codec ID : XVID
Codec ID/Hint : XviD
Duration : 54mn 23s
Bit rate : 1 600 Kbps
Width : 720 pixels
Height : 384 pixels
Display aspect ratio : 1.875
Frame rate : 25.000 fps
Color space : YUV
Chroma subsampling : 4:2:0
Bit depth : 8 bits
Scan type : Progressive
Compression mode : Lossy
Bits/(Pixel*Frame) : 0.231
Stream size : 622 MiB (89%)
Writing library : XviD 73
Audio
ID : 1
Format : AC-3
Format/Info : Audio Coding 3
Mode extension : CM (complete main)
Codec ID : 2000
Duration : 54mn 23s
Bit rate mode : Constant
Bit rate : 192 Kbps
Channel(s) : 2 channels
Channel positions : Front: L R
Sampling rate : 48.0 KHz
Bit depth : 16 bits
Compression mode : Lossy
Stream size : 74.7 MiB (11%)
Alignment : Split accross interleaves
Interleave, duration : 40 ms (1.00 video frame)
Interleave, preload duration : 500 ms

Внимание! Раздача ведётся путём добавления новых серий!

Внимание! Раздача ведётся путём добавления новых серий
Внимание! Раздача ведётся путём добавления новых серий; при каждом добавлении создётся новый торрент.
Чтобы начать докачку новой серии, пользователям необходимо сделать следующее:
1) остановить скачивание
2) удалить старый торрент у себя из клиента (старые серии удалять не надо)
3) скачать новый торрент и запустить его у себя в клиенте вместо старого, при этом указать клиенту путь в старую папку куда и должно происходить скачивание новых серий.
Ваш клиент при этом должен произвести хеширование (проверку) старой папки (если не производит сам - помогите ему сделать это), и будет докачивать только те серии которых у вас ещё нет. Старые серии при этом не удаляются, а продолжают раздаваться!
Eсли вы уже удалили старые серии, то предотвратить повторную закачку старых серий можно, отжав галочку в соответствовавших местах при запуске нового торрента.
[cybertorrent.net].t3218.torrent 
Торрент: Зарегистрирован [ 2019-05-29 16:20 ] · E95560B2FC9856F70756CE93DB8F4D5B7EB64FF1

Скачать .torrent

Скачать

41 KB

Статус: проверено
Скачан: 0 раз
Размер: 7,93 GB
terms.php
Показать сообщения:    

Текущее время: 19-Ноя 03:45

Часовой пояс: UTC ± 0



Вы не можете начинать темы
Вы не можете отвечать на сообщения
Вы не можете редактировать свои сообщения
Вы не можете удалять свои сообщения
Вы не можете голосовать в опросах
Вы не можете прикреплять файлы к сообщениям
Вы можете скачивать файлы