Статистика раздачи
Размер:  1,69 GB   |    Зарегистрирован:  5 месяцев 22 дня   |    Скачан:  0 раз

Полного источника не было: Никогда

 
     
 
 

Гость ®

Пол:
Не указан

Великолепная пятерка
Год выпуска: 2019
Производство: «Триикс Медиа» по заказу Пятого канала
Жанр: Детектив, драма
Продолжительность: 2 х ~ 00:40:00
Субтитры: Нет
Режиссёр: Сергей Полуянов
В ролях: Павел Григорьев, Андрей Горбачёв, Алексей Красноцветов, Нодар Джанелидзе, Константин Гришанов, Егор Кутенков, Екатерина Проскурина, Евгения Любимова, Олеся Бережная, Анна Лутцева, Елизавета Ковалёва, Анна Щетинина, Наталья Мызникова, Вячеслав Аркунов, Глафира Козулина
Описание: О буднях оперов «убойного» отдела Петровского РОВД Петербурга. Пятёрка — по количеству сотрудников. Майор Павел Шапошников, капитаны Дмитрий Красавченко и Тимур Бубнов, старший лейтенант Антон Ветров и лейтенант Владимир Кузьмин. Пять разных характеров, которые сплотил их командир, подполковник Андрей Голованов — человек с хорошим чувством юмора и богатым прошлым. Он еще помнит, когда в Петербурге были улицы разбитых фонарей. Время изменилось: милиция стала полицией, город преобразился, но человеческие страсти по-прежнему кипят вовсю. Месть, зависть, страх, любострастие, корысть толкают одних на преступления, а честь, совесть, справедливость и смелость заставляют других противостоять злу. Герои «великолепной пятёрки» наказывают зло ежедневно. Удивительно, но в этой рутине у них остается время на любовь, дружбу и юмор.
Релиз группа
Реклама: Сторонней рекламы нет!
Все раздачи сериала Великолепная пятерка


Качество: WEBRip 1080p
Формат: MKV
Видео кодек: H.264
Аудио кодек: AC3
Видео: MPEG-4 AVC, 1920x1080 (1.80:1), 25 fps, 3847 kbps avg, 8 bit/pixel
Аудио: 48 kHz, AC3 Dolby Digital, 2/0 (L,R) ch, ~192 kbps

Скриншоты

MediaInfo

Unique ID : 232514137692893958923961785814495394820 (0xAEEC9812318F0BC28493B7CBDC4DFC04)
Complete name : D:\Великолепная Пятерка.2019. WEB-DLRip. Files-x\02. Великолепная Пятерка. 2019.WEB-DL 1080p.Files-x.mkv
Format : Matroska
Format version : Version 2
File size : 1.10 GiB
Duration : 41 min 1 s
Overall bit rate : 3 847 kb/s
Encoded date : UTC 2019-05-28 21:50:35
Writing application : mkvmerge v7.8.0 ('River Man') 32bit built on Apr 3 2015 12:11:22
Writing library : libebml v1.3.1 + libmatroska v1.4.2
Video
ID : 1
Format : AVC
Format/Info : Advanced Video Codec
Format profile : High@L4
Format settings : CABAC / 3 Ref Frames
Format settings, CABAC : Yes
Format settings, ReFrames : 3 frames
Codec ID : V_MPEG4/ISO/AVC
Duration : 41 min 1 s
Bit rate : 3 579 kb/s
Width : 1 920 pixels
Height : 1 080 pixels
Display aspect ratio : 16:9
Frame rate mode : Constant
Frame rate : 25.000 FPS
Color space : YUV
Chroma subsampling : 4:2:0
Bit depth : 8 bits
Scan type : Progressive
Bits/(Pixel*Frame) : 0.069
Stream size : 1.03 GiB (93%)
Default : Yes
Forced : No
Color range : Limited
Color primaries : BT.709
Transfer characteristics : BT.709
Matrix coefficients : BT.709
Audio
ID : 2
Format : AC-3
Format/Info : Audio Coding 3
Codec ID : A_AC3
Duration : 41 min 1 s
Bit rate mode : Constant
Bit rate : 192 kb/s
Channel(s) : 2 channels
Channel positions : Front: L R
Sampling rate : 44.1 kHz
Frame rate : 28.711 FPS (1536 SPF)
Bit depth : 16 bits
Compression mode : Lossy
Stream size : 56.3 MiB (5%)
Service kind : Complete Main
Default : Yes
Forced : No

Внимание! Раздача ведётся путём добавления новых серий!

Внимание! Раздача ведётся путём добавления новых серий
Внимание! Раздача ведётся путём добавления новых серий; при каждом добавлении создётся новый торрент.
Чтобы начать докачку новой серии, пользователям необходимо сделать следующее:
1) остановить скачивание
2) удалить старый торрент у себя из клиента (старые серии удалять не надо)
3) скачать новый торрент и запустить его у себя в клиенте вместо старого, при этом указать клиенту путь в старую папку куда и должно происходить скачивание новых серий.
Ваш клиент при этом должен произвести хеширование (проверку) старой папки (если не производит сам - помогите ему сделать это), и будет докачивать только те серии которых у вас ещё нет. Старые серии при этом не удаляются, а продолжают раздаваться!
Eсли вы уже удалили старые серии, то предотвратить повторную закачку старых серий можно, отжав галочку в соответствовавших местах при запуске нового торрента.
[cybertorrent.net].t3210.torrent 
Торрент: Зарегистрирован [ 2019-05-29 16:20 ] · 0AC6683B9AF91D9AC020840D3DC323ABC83468C7

Скачать .torrent

Скачать

18 KB

Статус: проверено
Скачан: 0 раз
Размер: 1,69 GB
terms.php
Показать сообщения:    

Текущее время: 21-Ноя 09:22

Часовой пояс: UTC ± 0



Вы не можете начинать темы
Вы не можете отвечать на сообщения
Вы не можете редактировать свои сообщения
Вы не можете удалять свои сообщения
Вы не можете голосовать в опросах
Вы не можете прикреплять файлы к сообщениям
Вы можете скачивать файлы