Статистика раздачи
Размер:  3,97 GB   |    Зарегистрирован:  7 месяцев 29 дней   |    Скачан:  0 раз

Полного источника не было: Никогда

 
     
 
 

serzh ®

Пол:
Не указан
Стаж:
8 месяцев 4 дня
Сообщений:
384

Цена победы / Speed Cross [Советская прокатная копия]- Страна: Италия
Жанр: боевик, драма
Год выпуска: 1980
Продолжительность: 01:30:12-Перевод: Профессиональный (дублированный) - Киностудия им. М. Горького
Субтитры: нет-Режиссер: Стельвио Масси / Stelvio Massi
В ролях: Фабио Тести, Витторио Меццоджорно, Даниэла Поджи, Жак Эрлен, Marilda Donà, Франко Одоарди, Хосе Луис де Вильялонга, Лия Танци, Марко Бонетти, Гуэррино Кривелло...- | Релиз: -Описание: Два друга мотоциклиста Паоло и Николо после долгой разлуки встречаются на международных соревнованиях по мотокроссу в ФРГ, где их строптивый нрав застрянет как кость в горле у банды местных гангстеров, состоящих на службе у устроителя состязания Фишера. В финале, после череды погонь и драк герои сводят счёты с главарём банды Куртом, сдают мафиозо Фишера местной полиции и получают главный денежный приз.-Семпл: http://sendfile.su/1477445-Тип релиза: Screener
Контейнер: DVD-Video
Видео: PAL 720x576 (4:3) @ 768x576, 25.000 fps, MPEG-2 Video, ~6000 Kbps, 0.579 bits/pixel
Аудио: Русский, 48.0 KHz, AC3, 2 ch, 192 Kbps

DVDInfo

Title: Цена победы 1980 Dub Горького
Size: 3.97 Gb ( 4 166 468,00 KBytes ) - DVD-5
Enabled regions: 1, 2, 3, 4, 5, 6, 7, 8
VTS_01 :
Play Length: 01:30:12
Video: PAL 4:3 (720x576) VBR
Audio:
Russian, AC3, 2/0 (L,R) ch, 192 kbps, Delay 0 mSec

MediaInfo

General
Complete name : \Цена победы 1980 Dub Горького\VIDEO_TS\VTS_01_1.VOB
Format : MPEG-PS
File size : 1 024 MiB
Duration : 22 min 42 s
Overall bit rate mode : Variable
Overall bit rate : 6 305 kb/s
Video
ID : 224 (0xE0)
Format : MPEG Video
Format version : Version 2
Format profile : Main@Main
Format settings : CustomMatrix / BVOP
Format settings, BVOP : Yes
Format settings, Matrix : Custom
Format settings, GOP : Variable
Format settings, picture structure : Frame
Duration : 22 min 42 s
Bit rate mode : Variable
Bit rate : 6 000 kb/s
Width : 720 pixels
Height : 576 pixels
Display aspect ratio : 4:3
Frame rate : 25.000 FPS
Standard : PAL
Color space : YUV
Chroma subsampling : 4:2:0
Bit depth : 8 bits
Scan type : Interlaced
Scan order : Top Field First
Compression mode : Lossy
Bits/(Pixel*Frame) : 0.579
Time code of first frame : 00:00:00:00
Time code source : Group of pictures header
GOP, Open/Closed : Open
GOP, Open/Closed of first frame : Closed
Stream size : 972 MiB (95%)
Audio
ID : 189 (0xBD)-128 (0x80)
Format : AC-3
Format/Info : Audio Coding 3
Commercial name : Dolby Digital
Muxing mode : DVD-Video
Duration : 22 min 41 s
Bit rate mode : Constant
Bit rate : 192 kb/s
Channel(s) : 2 channels
Channel layout : L R
Sampling rate : 48.0 kHz
Frame rate : 31.250 FPS (1536 SPF)
Bit depth : 16 bits
Compression mode : Lossy
Stream size : 31.2 MiB (3%)
Service kind : Complete Main
Menu
[cybertorrent.net].t320.torrent 
Торрент: Зарегистрирован [ 2019-03-18 10:04 ] · 5D4769C4D2708638C33851C6AA3F3471AE9269E1

Скачать .torrent

Скачать

21 KB

Статус: проверено
Скачан: 0 раз
Размер: 3,97 GB
terms.php
Профиль ЛС
Показать сообщения:    

Текущее время: 17-Ноя 05:33

Часовой пояс: UTC ± 0



Вы не можете начинать темы
Вы не можете отвечать на сообщения
Вы не можете редактировать свои сообщения
Вы не можете удалять свои сообщения
Вы не можете голосовать в опросах
Вы не можете прикреплять файлы к сообщениям
Вы можете скачивать файлы