Статистика раздачи
Размер:  1,4 GB   |    Зарегистрирован:  5 месяцев 15 дней   |    Скачан:  0 раз

Полного источника не было: Никогда

 
     
 
 

солнышко ®

Пол:
Не указан
Стаж:
8 месяцев 1 день
Сообщений:
565

Закон ночи / Live by Night / Open Matte
Год выпуска: 2016
Страна: США
Жанр: триллер, криминал
Продолжительность: 02:09:00
Перевод: Профессиональный (дублированный)
Субтитры: русские (форс, полные), английские (полные)
Режиссер: Бен Аффлек / Ben Affleck
В ролях: Бен Аффлек, Крис Мессина, Зои Салдана, Сиенна Миллер, Крис Купер, Эль Фаннинг, Брендан Мигель, Ремо Джироне, Роберт Гленистер
Описание: Джо Коглин рос в семье законопослушных граждан США. Его отец был полицейским и брат пошел по стопам отца. Все конечно же ожидали что и Джо выберет такой путь. Но случилось иначе. Этот парень будучи с рождения предприимчивым, решил заработать денег на сухом законе. Да, он совершал поставки спиртного, противозаконные конечно. Как известно криминал манит и затягивает любителей легких денег. И обратного пути зачастую нет. Как же все таки отнесется судьба к Джо Коглину..?
Дополнительная информация: исходник с онлайн кинотеатра amazon
Сэмпл: http://sendfile.su/1494426

Качество: WEB-DLRip-AVC
Формат видео: MKV
Видео: AVC, 804x452, 23,976 fps, 1103 kbps
Аудио: 48 kHz, AC3, 6 ch, 448 kbps
Формат субтитров: softsub (SRT)

MediaInfo

General
UniqueID : 222202321353481295690108282273258305012 (0xA72A9C45D7855C109F685859BFF075F4)
Complete name : D:\Live by Night (2016) OM.mkv
Format : Matroska
File size : 1.40 GiB
Duration : 2h 9mn
Overall bit rate : 1 552 Kbps
Encoded date : UTC 2019-05-14 15:50:28
Writing application : mkvmerge v8.3.0 ('Over the Horizon') 32bit
Writing library : libebml v1.3.1 + libmatroska v1.4.2
Video
ID : 1
Format : AVC
Format/Info : Advanced Video Codec
Format profile : High@L4.1
Format settings, CABAC : Yes
Format settings, ReFrames : 14 frames
Codec ID : V_MPEG4/ISO/AVC
Duration : 2h 9mn
Bit rate : 1 103 Kbps
Width : 804 pixels
Height : 452 pixels
Display aspect ratio : 16:9
Frame rate : 23.976 fps
Color space : YUV
Chroma subsampling : 4:2:0
Bit depth : 8 bits
Scan type : Progressive
Bits/(Pixel*Frame) : 0.127
Stream size : 990 MiB (69%)
Writing library : x264 core 157 r2935 545de2f
Encoding settings : cabac=1 / ref=14 / deblock=1:-2:-2 / analyse=0x3:0x133 / me=umh / subme=11 / psy=1 / psy_rd=1.00:0.15 / mixed_ref=1 / me_range=32 / chroma_me=1 / trellis=2 / 8x8dct=1 / cqm=0 / deadzone=21,11 / fast_pskip=0 / chroma_qp_offset=-3 / threads=6 / lookahead_threads=1 / sliced_threads=0 / nr=0 / decimate=0 / interlaced=0 / bluray_compat=0 / constrained_intra=0 / bframes=10 / b_pyramid=2 / b_adapt=2 / b_bias=0 / direct=3 / weightb=1 / open_gop=0 / weightp=2 / keyint=240 / keyint_min=24 / scenecut=40 / intra_refresh=0 / rc=2pass / mbtree=0 / bitrate=1103 / ratetol=1.0 / qcomp=0.65 / qpmin=0 / qpmax=69 / qpstep=4 / cplxblur=20.0 / qblur=0.5 / ip_ratio=1.40 / pb_ratio=1.30 / aq=3:0.90
Language : English
Color primaries : BT.709-5, BT.1361, IEC 61966-2-4, SMPTE RP177
Transfer characteristics : BT.709-5, BT.1361
Matrix coefficients : BT.709-5, BT.1361, IEC 61966-2-4 709, SMPTE RP177
Audio
ID : 2
Format : AC-3
Format/Info : Audio Coding 3
Mode extension : CM (complete main)
Codec ID : A_AC3
Duration : 2h 9mn
Bit rate mode : Constant
Bit rate : 448 Kbps
Channel(s) : 6 channels
Channel positions : Front: L C R, Side: L R, LFE
Sampling rate : 48.0 KHz
Bit depth : 16 bits
Compression mode : Lossy
Stream size : 413 MiB (29%)
Language : Russian
Text #1
ID : 3
Format : UTF-8
Codec ID : S_TEXT/UTF8
Codec ID/Info : UTF-8 Plain Text
Title : Forced
Language : Russian
Text #2
ID : 4
Format : UTF-8
Codec ID : S_TEXT/UTF8
Codec ID/Info : UTF-8 Plain Text
Title : Full
Language : Russian
Text #3
ID : 5
Format : UTF-8
Codec ID : S_TEXT/UTF8
Codec ID/Info : UTF-8 Plain Text
Title : Full
Language : English

Скриншоты

Сравнения с BD


[cybertorrent.net].t3196.torrent 
Торрент: Зарегистрирован [ 2019-05-29 16:20 ] · B50680827AA61B07050D6D5E774B403068597F58

Скачать .torrent

Скачать

14 KB

Статус: проверено
Скачан: 0 раз
Размер: 1,4 GB
terms.php
Профиль ЛС
Показать сообщения:    

Текущее время: 13-Ноя 17:51

Часовой пояс: UTC ± 0



Вы не можете начинать темы
Вы не можете отвечать на сообщения
Вы не можете редактировать свои сообщения
Вы не можете удалять свои сообщения
Вы не можете голосовать в опросах
Вы не можете прикреплять файлы к сообщениям
Вы можете скачивать файлы