Статистика раздачи
Размер:  743 MB   |    Зарегистрирован:  5 месяцев 19 дней   |    Скачан:  0 раз

Полного источника не было: Никогда

 
     
 
 

Гость ®

Пол:
Не указан

Позвоните Мышкину
Страна: Россия
Жанр: комедия
Год выпуска: 2018
Продолжительность: 01:24:38
Субтитры: нет-Режиссер:
Илья Казанков-В ролях:
Михаил Трухин, Ярослава Базаева, Ирина Пегова, Михаил Пореченков, Иван Ефремов, Василий Юркевич, Маша Уросова, Полина Руденко, Елена Валюшкина-Описание:
Ермак Мышкин — крайне неуверенный в себе человек, который всю жизнь хотел стать актёром. Помочь в исполнении его мечты берётся 8-летняя девочка Даша, которая преследует и свои цели: ей очень хочется выйти из тени своей звёздной мамы, ведь та не обращает на дочь никакого внимания. Даша предлагает Ермаку отправиться из Петербурга в Москву на кастинг нового мюзикла, при этом «путешествие» должно выглядеть так, будто Ермак похитил девочку…-Качество видео: WEB-DLRip
Формат видео: AVI
Видео: 688x368 (1.87:1), 24.000 fps, XviD build 73 ~1089 kbps avg, 0.18 bit/pixel
Аудио: 48 kHz, MPEG Layer 3, 2 ch, ~128.00 kbps avg-[box]Сэмпл[/box]-

MediaInfo

Код:Формат : AVI
Формат/Информация : Audio Video Interleave
Размер файла : 743 Мбайт
Продолжительность : 1 ч. 24 м.
Общий поток : 1227 Кбит/сек
Название фильма : Позвоните Мышкину_2018_WEB-DLRip
Программа кодирования : VirtualDubMod 1.5.10.3 | www.virtualdub-fr.org || (build 2550/release)
Авторское право : порошков
Видео
Идентификатор : 0
Формат : MPEG-4 Visual
Профиль формата : Advanced Simple@L5
Настройки формата : BVOP1 / Custom Matrix
Параметр BVOP формата : 1
Параметр QPel формата : Нет
Параметр GMC формата : Без точки перехода
Параметр матрицы формата : Выборочная
Идентификатор кодека : XVID
Идентификатор кодека/Подсказка : XviD
Продолжительность : 1 ч. 24 м.
Битрейт : 1090 Кбит/сек
Ширина : 688 пикселей
Высота : 368 пикселей
Соотношение сторон : 1,85:1
Частота кадров : 24,000 кадра/сек
Цветовое пространство : YUV
Субдискретизация насыщенности : 4:2:0
Битовая глубина : 8 бит
Тип развёртки : Прогрессивная
Метод сжатия : С потерями
Бит/(Пиксели*Кадры) : 0.179
Размер потока : 660 Мбайт (89%)
Библиотека кодирования : XviD 73
Аудио
Идентификатор : 1
Формат : MPEG Audio
Версия формата : Version 1
Профиль формата : Layer 3
Идентификатор кодека : 55
Идентификатор кодека/Подсказка : MP3
Продолжительность : 1 ч. 24 м.
Вид битрейта : Постоянный
Битрейт : 128 Кбит/сек
Каналы : 2 канала
Частота : 48,0 КГц
Частота кадров : 41,667 кадра/сек (1152 SPF)
Метод сжатия : С потерями
Размер потока : 77,5 Мбайт (10%)
Выравнивание : Соединение по промежуткам
Продолжительность промежутка : 42 мс. (1,00 видеокадр)
Время предзагрузки промежутка : 504 мс.
Библиотека кодирования : LAME3.99r
Настройки программы : -m s -V 4 -q 2 -lowpass 17 -b 128

Скриншоты


[cybertorrent.net].t3192.torrent 
Торрент: Зарегистрирован [ 2019-05-28 15:56 ] · F2F51D9149D523D1F6813A04920C5967309B2367

Скачать .torrent

Скачать

15 KB

Статус: проверено
Скачан: 0 раз
Размер: 743 MB
terms.php
Показать сообщения:    

Текущее время: 17-Ноя 05:32

Часовой пояс: UTC ± 0



Вы не можете начинать темы
Вы не можете отвечать на сообщения
Вы не можете редактировать свои сообщения
Вы не можете удалять свои сообщения
Вы не можете голосовать в опросах
Вы не можете прикреплять файлы к сообщениям
Вы можете скачивать файлы