Статистика раздачи
Размер:  4,14 GB   |    Зарегистрирован:  5 месяцев 21 день   |    Скачан:  0 раз

Полного источника не было: Никогда

Личеров:  1  [  0 KB/s  ]  
 
     
 
 

Гость ®

Пол:
Не указан

Живая мина
Год выпуска: 2019
Производство: Киностудия КИТ, IKa Film
Жанр: детектив, боевик
Продолжительность: ~00:48:00 серия
Субтитры: нет
Режиссёр: Михаил Кабанов
В ролях: Антон Васильев, Виктория Корлякова, Петар Зекавица, Александр Карпов, Арсений Робак, Мария Свирид, Святослав Астрамович, Виталий Ходин, Арсений Александров, Андрей Гаркунов
Описание: Владимир Фадеев жил по закону: «Фадеев всегда прав. Кто не прав – тот не Фадеев». Он был профессионалом своего дела. Ему были подвластны самые сложные взрывные устройства. Но однажды его самонадеянность сыграла с ним злую шутку. В Сирии, при разминировании автобуса с мирными жителями, он не учёл запасной взрыватель, и, после его команды «открыть двери», автобус взлетел на воздух. Фадеев навсегда запомнил лицо улыбающейся сирийской девушки из Красного Креста. Посттравматический синдром заставил его комиссоваться. Теперь он – выкинутый на обочину мирной жизни пьяница, подрабатывающий охранником. Но вот в музее, из которого его уволили за распитие спиртных напитков во время дежурства, происходит взрыв. И Фадеев вновь оказывается нужным: только он может понять, как действовал подрывник.

Реклама: Нет.
Кинопоиск
Все раздачи сериала
Sample
Качество: WEBRip 1080p - ExKinoRay
Формат: MKV
Видео кодек: H.264
Аудио кодек: AC3
Видео: MPEG4 AVC Video, H264, 16:9, 1920x1080, 25 fps, ~6000 kbps, 0.116 bit/pixel
Аудио: AC3 Dolby Digital, 48.0 kHz, 2/0 (L,R) ch, 192 kbps

Внимание! Раздача ведётся путём добавления новых серий

Раздача ведётся путём добавления новых серий, при каждом добавлении создаётся новый торрент. Чтобы начать докачку новой серии, пользователям необходимо сделать следующее:
- Остановить скачивание.
- Удалить старый торрент у себя из клиента (старые серии удалять не надо).
- Скачать новый торрент и запустить его у себя в клиенте вместо старого, при этом указать клиенту путь в старую папку куда и должно происходить скачивание новых серий.
Ваш клиент при этом должен произвести хеширование (проверку) старой папки (если не производит сам - помогите ему сделать это), и будет докачивать только те серии которых у вас ещё нет. Старые серии при этом не удаляются, а продолжают раздаваться!
Если вы уже удалили старые серии, то предотвратить повторную закачку старых серий можно, отжав галочку в соответствующих местах при запуске нового торрента. По возможности, желательно не удалять старые серии как можно дольше, чтобы релизер не столько продолжал раздавать старые серии, а смог сконцентрироваться на новых.

MI

General
Unique ID : 237989583739843347131079621480590543711 (0xB30B2067651BB1DEA09EB2B0A1230B5F)
Complete name : D:\Zhivaya.mina.2018.WEB-DL.(1080p).ExKinoRay\Zhivaya.mina.(01.seriya).2018.WEB-DL.(1080p).ExKinoRay.mkv
Format : Matroska
Format version : Version 4 / Version 2
File size : 2.02 GiB
Duration : 47 min 10 s
Overall bit rate mode : Constant
Overall bit rate : 6 141 kb/s
Encoded date : UTC 2019-05-26 17:49:07
Writing application : mkvmerge v7.8.0 ('River Man') 32bit built on Mar 27 2015 16:18:02
Writing library : libebml v1.3.1 + libmatroska v1.4.2
Video
ID : 1
Format : AVC
Format/Info : Advanced Video Codec
Format profile : High@L4.1
Format settings : 2 Ref Frames
Format settings, CABAC : No
Format settings, ReFrames : 2 frames
Codec ID : V_MPEG4/ISO/AVC
Duration : 47 min 10 s
Bit rate mode : Constant
Bit rate : 6 000 kb/s
Width : 1 920 pixels
Height : 1 080 pixels
Display aspect ratio : 16:9
Frame rate mode : Constant
Frame rate : 25.000 FPS
Standard : PAL
Color space : YUV
Chroma subsampling : 4:2:0
Bit depth : 8 bits
Scan type : Progressive
Bits/(Pixel*Frame) : 0.116
Stream size : 1.96 GiB (97%)
Default : Yes
Forced : No
Color range : Limited
Color primaries : BT.709
Transfer characteristics : BT.709
Matrix coefficients : BT.709
Audio
ID : 2
Format : AC-3
Format/Info : Audio Coding 3
Codec ID : A_AC3
Duration : 47 min 10 s
Bit rate mode : Constant
Bit rate : 192 kb/s
Channel(s) : 2 channels
Channel positions : Front: L R
Sampling rate : 48.0 kHz
Frame rate : 31.250 FPS (1536 SPF)
Bit depth : 16 bits
Compression mode : Lossy
Stream size : 64.8 MiB (3%)
Language : Russian
Service kind : Complete Main
Default : Yes
Forced : No

Скриншоты


[cybertorrent.net].t3190.torrent 
Торрент: Зарегистрирован [ 2019-05-28 15:56 ] · DDB6633942A16D4296F6FA29FB712B02E50ACB34

Скачать .torrent

Скачать

21 KB

Статус: проверено
Скачан: 0 раз
Размер: 4,14 GB
terms.php
Показать сообщения:    

Текущее время: 19-Ноя 03:46

Часовой пояс: UTC ± 0



Вы не можете начинать темы
Вы не можете отвечать на сообщения
Вы не можете редактировать свои сообщения
Вы не можете удалять свои сообщения
Вы не можете голосовать в опросах
Вы не можете прикреплять файлы к сообщениям
Вы можете скачивать файлы