Статистика раздачи
Размер:  4,41 GB   |    Зарегистрирован:  5 месяцев 14 дней   |    Скачан:  0 раз

Полного источника не было: Никогда

 
     
 
 

Гость ®

Пол:
Не указан

Коп
Год выпуска: 2019
Производство: Среда
Жанр: комедия, детектив
Продолжительность: ~00:48:00 серия
Субтитры: нет
Режиссёр: Радда Новикова
В ролях: Анна Снаткина, Кирилл Зайцев, Иван Шмаков, Прохор Дубравин, Сергей Угрюмов, Николай Козак, Анатолий Горячев, Екатерина Маликова, Дмитрий Блохин, Виктор Цекало, Мария Баева, Дмитрий Артаев, Джунсуке Киносита, Алексей Гришин
Описание: Лейтенанта полиции Колю отправляют в Америку, где он в одночасье становится любимцем отдела, раскрыв за короткий срок несколько очень запутанных дел. На смену ему присылают американского копа Джона. Как только он переступает границы нашей страны, его жизнь меняется навсегда…

Реклама: Нет.
Кинопоиск
Все раздачи сериала
Sample
Качество: HDTV 1080i - olegka7373 (GeneralFilm)
Формат: TS
Видео кодек: AVC
Аудио кодек: AC3, MP2
Видео: MPEG4 AVC Video, H264, 16:9, 1920x1080, 25 fps, ~5600 kbps, 0.108 bit/pixel
Аудио: AC3, 6 ch, 384 kbps, 16 bits, 48.0 KHz
Аудио 2: MP2, 2 ch, 192 kbps, 16 bits, 48.0 KHz

Внимание! Раздача ведётся путём добавления новых серий

Раздача ведётся путём добавления новых серий, при каждом добавлении создаётся новый торрент. Чтобы начать докачку новой серии, пользователям необходимо сделать следующее:
- Остановить скачивание.
- Удалить старый торрент у себя из клиента (старые серии удалять не надо).
- Скачать новый торрент и запустить его у себя в клиенте вместо старого, при этом указать клиенту путь в старую папку куда и должно происходить скачивание новых серий.
Ваш клиент при этом должен произвести хеширование (проверку) старой папки (если не производит сам - помогите ему сделать это), и будет докачивать только те серии которых у вас ещё нет. Старые серии при этом не удаляются, а продолжают раздаваться!
Если вы уже удалили старые серии, то предотвратить повторную закачку старых серий можно, отжав галочку в соответствующих местах при запуске нового торрента. По возможности, желательно не удалять старые серии как можно дольше, чтобы релизер не столько продолжал раздавать старые серии, а смог сконцентрироваться на новых.

MI

General
ID : 1 (0x1)
Complete name : D:\Kop.HDTV(1080i).GeneralFilm\01.Kop.HDTV(1080i).GeneralFilm.ts
Format : MPEG-TS
File size : 2.19 GiB
Duration : 48 min 22 s
Overall bit rate mode : Variable
Overall bit rate : 6 491 kb/s
Video
ID : 1904 (0x770)
Menu ID : 80 (0x50)
Format : AVC
Format/Info : Advanced Video Codec
Format profile : High@L4
Format settings : CABAC / 3 Ref Frames
Format settings, CABAC : Yes
Format settings, ReFrames : 3 frames
Codec ID : 27
Duration : 48 min 22 s
Bit rate : 5 588 kb/s
Width : 1 920 pixels
Height : 1 080 pixels
Display aspect ratio : 16:9
Frame rate : 25.000 FPS
Standard : Component
Color space : YUV
Chroma subsampling : 4:2:0
Bit depth : 8 bits
Scan type : Interlaced
Scan type, store method : Separated fields
Scan order : Top Field First
Bits/(Pixel*Frame) : 0.108
Stream size : 1.89 GiB (86%)
Color range : Limited
Color primaries : BT.709
Transfer characteristics : BT.709
Matrix coefficients : BT.709
Audio #1
ID : 2904 (0xB58)
Menu ID : 80 (0x50)
Format : AC-3
Format/Info : Audio Coding 3
Codec ID : 6
Duration : 48 min 22 s
Bit rate mode : Constant
Bit rate : 384 kb/s
Channel(s) : 6 channels
Channel positions : Front: L C R, Side: L R, LFE
Sampling rate : 48.0 kHz
Frame rate : 31.250 FPS (1536 SPF)
Bit depth : 16 bits
Compression mode : Lossy
Delay relative to video : -40 ms
Stream size : 133 MiB (6%)
Language : Russian
Service kind : Complete Main
Audio #2
ID : 2905 (0xB59)
Menu ID : 80 (0x50)
Format : MPEG Audio
Format version : Version 1
Format profile : Layer 2
Codec ID : 3
Duration : 48 min 22 s
Bit rate mode : Constant
Bit rate : 192 kb/s
Channel(s) : 2 channels
Sampling rate : 48.0 kHz
Frame rate : 41.667 FPS (1152 SPF)
Compression mode : Lossy
Delay relative to video : -40 ms
Stream size : 66.4 MiB (3%)
Language : Russian

Скриншоты


[cybertorrent.net].t3186.torrent 
Торрент: Зарегистрирован [ 2019-05-28 15:56 ] · EC92CC0007BF1BCD108CF739633E5289CC3175E8

Скачать .torrent

Скачать

23 KB

Статус: проверено
Скачан: 0 раз
Размер: 4,41 GB
terms.php
Показать сообщения:    

Текущее время: 12-Ноя 06:22

Часовой пояс: UTC ± 0



Вы не можете начинать темы
Вы не можете отвечать на сообщения
Вы не можете редактировать свои сообщения
Вы не можете удалять свои сообщения
Вы не можете голосовать в опросах
Вы не можете прикреплять файлы к сообщениям
Вы можете скачивать файлы