Статистика раздачи
Размер:  1,46 GB   |    Зарегистрирован:  5 месяцев 24 дня   |    Скачан:  0 раз

Полного источника не было: Никогда

 
     
 
 

солнышко ®

Пол:
Не указан
Стаж:
8 месяцев 9 дней
Сообщений:
565

Земля устойчивых привычек / The Land of Steady Habits
Страна: США
Жанр: драма, мелодрама, комедия
Год выпуска: 2018
Продолжительность: 01:37:55-Перевод: Профессиональный (многоголосый закадровый) | NewStudio
Субтитры: нет
Оригинальная аудиодорожка: нет-Режиссер: Николь Холофсенер / Nicole Holofcener-В ролях:
Бен Мендельсон, Томас Манн, Конни Бриттон, Чарли Тахэн, Иди Фалько, Элизабет Марвел, Билл Кэмп, Джош Пэйс, Майкл Гэстон, Виктор Уильямс-Описание:
50-летний Андерс Хилл, вышедший на пенсию экономист, давно погряз в «земле устойчивых привычек» — небольшом городке в Коннектикуте. В попытке вырваться из рутины он уходит от жены, покупает квартиру и ждёт, когда свобода сделает из него нового человека. Вместо этого, выйдя из зоны комфорта, Андерс отправляется на встречу с прошлым.- -Качество видео: WEBRip
Формат видео: AVI
Видео: 704x352 (2.00:1), 23.976 fps, XviD build 73 ~1736 kbps avg, 0.29 bit/pixel
Аудио: 48 kHz, AC3 Dolby Digital, 3/2 (L,C,R,l,r) + LFE ch, ~384 kbps-[box]Сэмпл[/box]-

MediaInfo

Код:Формат : AVI
Формат/Информация : Audio Video Interleave
Размер файла : 1,46 Гбайт
Продолжительность : 1 ч. 37 м.
Общий поток : 2129 Кбит/сек
Название фильма : Земля устойчивых привычек_2018_WEBRip
Программа кодирования : VirtualDubMod 1.5.10.3 | www.virtualdub-fr.org || (build 2550/release)
Авторское право : порошков
Видео
Идентификатор : 0
Формат : MPEG-4 Visual
Профиль формата : Advanced Simple@L5
Настройки формата : BVOP1 / Custom Matrix
Параметр BVOP формата : 1
Параметр QPel формата : Нет
Параметр GMC формата : Без точки перехода
Параметр матрицы формата : Выборочная
Идентификатор кодека : XVID
Идентификатор кодека/Подсказка : XviD
Продолжительность : 1 ч. 37 м.
Битрейт : 1736 Кбит/сек
Ширина : 704 пикселя
Высота : 352 пикселя
Соотношение сторон : 2,000
Частота кадров : 23,976 (24000/1001) кадра/сек
Цветовое пространство : YUV
Субдискретизация насыщенности : 4:2:0
Битовая глубина : 8 бит
Тип развёртки : Прогрессивная
Метод сжатия : С потерями
Бит/(Пиксели*Кадры) : 0.292
Размер потока : 1,19 Гбайт (82%)
Библиотека кодирования : XviD 73
Аудио
Идентификатор : 1
Формат : AC-3
Формат/Информация : Audio Coding 3
Коммерческое название : Dolby Digital
Идентификатор кодека : 2000
Продолжительность : 1 ч. 37 м.
Вид битрейта : Постоянный
Битрейт : 384 Кбит/сек
Каналы : 6 каналов
ChannelLayout : L R C LFE Ls Rs
Частота : 48,0 КГц
Частота кадров : 31,250 кадров/сек (1536 SPF)
Битовая глубина : 16 бит
Метод сжатия : С потерями
Размер потока : 269 Мбайт (18%)
Выравнивание : Разделение по промежуткам
Продолжительность промежутка : 42 мс. (1,00 видеокадр)
Время предзагрузки промежутка : 500 мс.
ServiceKind/String : Complete Main

Скриншоты


[cybertorrent.net].t3184.torrent 
Торрент: Зарегистрирован [ 2019-05-28 15:56 ] · E37CC4C712254E94532195023EAC17D3D588FB87

Скачать .torrent

Скачать

15 KB

Статус: проверено
Скачан: 0 раз
Размер: 1,46 GB
terms.php
Профиль [ЛС]
Показать сообщения:    

Текущее время: 22-Ноя 00:18

Часовой пояс: UTC ± 0



Вы не можете начинать темы
Вы не можете отвечать на сообщения
Вы не можете редактировать свои сообщения
Вы не можете удалять свои сообщения
Вы не можете голосовать в опросах
Вы не можете прикреплять файлы к сообщениям
Вы можете скачивать файлы