Статистика раздачи
Размер:  1,46 GB   |    Зарегистрирован:  5 месяцев 16 дней   |    Скачан:  0 раз
Сидов:  21  [  0 KB/s  ]   Личеров:  1  [  0 KB/s  ]  
 
     
 
 

Гость ®

Пол:
Не указан

Позвоните Мышкину
Жанр: комедия
Год выпуска: 2018
Продолжительность: 01:24:38
Режиссёр: Илья Казанков
В ролях: Михаил Трухин, Ярослава Базаева, Ирина Пегова, Михаил Пореченков, Иван Ефремов, Василий Юркевич, Маша Уросова, Полина Руденко, Елена Валюшкина

Описание: Ермак Мышкин — крайне неуверенный в себе человек, который всю жизнь хотел стать актёром. Помочь в исполнении его мечты берётся 8-летняя девочка Даша, которая преследует и свои цели: ей очень хочется выйти из тени своей звёздной мамы, ведь та не обращает на дочь никакого внимания. Даша предлагает Ермаку отправиться из Петербурга в Москву на кастинг нового мюзикла, при этом «путешествие» должно выглядеть так, будто Ермак похитил девочку…

Кинопоиск
Sample
Качество видео: WEB-DLRip
Формат видео: AVI
Видео: 720x384 (1.88:1), 24.000 fps, XviD build 73 ~2077 kbps avg, 0.31 bit/pixel
Аудио: 48 kHz, AC3 Dolby Digital, 3/2 (L,C,R,l,r) + LFE ch, ~384 kbps

MediaInfo

General
Complete name : D:\Позвоните Мышкину 2018 WEB-DLRip.avi
Format : AVI
Format/Info : Audio Video Interleave
File size : 1.46 GiB
Duration : 1 h 24 min
Overall bit rate : 2 471 kb/s
Writing application : VirtualDubMod 1.5.10.3 | www.virtualdub-fr.org || (build 2550/release)
Writing library : VirtualDubMod build 2550/release
Video
ID : 0
Format : MPEG-4 Visual
Format profile : Advanced Simple@L5
Format settings : BVOP1
Format settings, BVOP : 1
Format settings, QPel : No
Format settings, GMC : No warppoints
Format settings, Matrix : Default (MPEG)
Codec ID : XVID
Codec ID/Hint : XviD
Duration : 1 h 24 min
Bit rate : 2 077 kb/s
Width : 720 pixels
Height : 384 pixels
Display aspect ratio : 1.85:1
Frame rate : 24.000 FPS
Color space : YUV
Chroma subsampling : 4:2:0
Bit depth : 8 bits
Scan type : Progressive
Compression mode : Lossy
Bits/(Pixel*Frame) : 0.313
Stream size : 1.23 GiB (84%)
Writing library : XviD 73
Audio
ID : 1
Format : AC-3
Format/Info : Audio Coding 3
Codec ID : 2000
Duration : 1 h 24 min
Bit rate mode : Constant
Bit rate : 384 kb/s
Channel(s) : 6 channels
Channel positions : Front: L C R, Side: L R, LFE
Sampling rate : 48.0 kHz
Frame rate : 31.250 FPS (1536 SPF)
Bit depth : 16 bits
Compression mode : Lossy
Stream size : 232 MiB (16%)
Alignment : Split accross interleaves
Interleave, duration : 42 ms (1.00 video frame)
Interleave, preload duratio : 500 ms
Service kind : Complete Main

Скриншоты



[cybertorrent.net].t3173.torrent 
Торрент: Зарегистрирован [ 2019-05-28 15:56 ] · 48526192458C95EEFEE5DCB033D2B74DFA6EA619

Скачать .torrent

Скачать

15 KB

Статус: проверено
Скачан: 0 раз
Размер: 1,46 GB
terms.php
Показать сообщения:    

Текущее время: 14-Ноя 09:21

Часовой пояс: UTC ± 0



Вы не можете начинать темы
Вы не можете отвечать на сообщения
Вы не можете редактировать свои сообщения
Вы не можете удалять свои сообщения
Вы не можете голосовать в опросах
Вы не можете прикреплять файлы к сообщениям
Вы можете скачивать файлы