Статистика раздачи
Размер:  4,68 GB   |    Зарегистрирован:  5 месяцев 17 дней   |    Скачан:  0 раз

Полного источника не было: Никогда

 
     
 
 

Гость ®

Пол:
Не указан

Плащ и Кинжал / Cloak & Dagger Год выпуска: 2019
Страна: США
Жанр: фантастика, боевик, драма.
Продолжительность: ~00:43:00
Перевод: Профессиональный (дублированный) Невафильм
Режиссёр: Алекс Гарсиа Лопес, Питер Хор, Эми Канаан Манн
В ролях: Оливия Холт, Обри Джозеф, Глория Рубен, Дж.Д. Эвермор, Майлз Массенден, Андреа Рот, Эмма Лахана, Ноэль Рени Берси, Уэйн Пер, Карл Лундстедт
Описание: Молодежный фантастический сериал, созданный по мотивам одноименной серии комиксов Marvel. В качестве одного из продюсеров проекта выступил легендарный Стэн Ли – создатель Человека-паука, Людей Икс, Доктора Стрэнджа, Железного человека, Сорвиголовы, Тора и многих других супергероев. Тэнди Боуэн (Оливия Холт) – красивая девушка, которая промышляет воровством: она мечтает скопить побольше денег, чтобы навсегда сбежать из-под опеки своей эгоистичной матери. Тайрон Джонсон (Обри Джозеф) – замкнутый подросток-афроамериканец, выросший в бедном районе. Случайная встреча на школьной вечеринке изменит жизнь обоих: вскоре Тэнди и Тайрон обнаружат у себя сверхспособности, которыми они пока не в силах управлять. Тэнди способна генерировать световые кинжалы, а Тайрон может перемещаться в пространстве с помощью некой темной энергии. Разгадка удивительных способностей подростков кроется в их общем прошлом – роковой штормовой ночи, когда Тэнди потеряла отца, а Тайрон – брата. Постепенно Тэнди и Тайрон понимают, что им лучше держаться вместе, ведь только так они смогут научиться управлять своими силами.

Исходник: WEB-DL 1080p
Качество: WEB-DLRip
Формат: AVI
Видео: XviD, 720x400, 23,976 fps, ~ 1599 kbps
Аудио 1: 48 kHz, AC3 2 ch, ~192 kbps|Невафильм|
Аудио 2: 48 kHz, AC3 2 ch, ~192 kbps
Субтитры: Русские (форс.), английские (SDH)
Реклама: Отсутствует
Предыдущие и альтернативные раздачи

Релиз

Работа со звуком: itunestv@EniaHD

MediaInfo

Format : AVI
Format/Info : Audio Video Interleave
File size : 607 MiB
Duration : 42mn 27s
Overall bit rate : 1 998 Kbps
Movie name : Плащ и кинжал 2х01: Неприкаянная энергия
Director : Бёдвар (WEB-DLRip 400p)
Writing application : VirtualDubModRus 1.5.10.2 (build 2542/release)
Comment : 27.05.2019
Video
ID : 0
Format : MPEG-4 Visual
Format profile : Advanced Simple@L5
Format settings, BVOP : 1
Format settings, QPel : No
Format settings, GMC : No warppoints
Format settings, Matrix : Default (MPEG)
Codec ID : XVID
Codec ID/Hint : XviD
Duration : 42mn 27s
Bit rate : 1 600 Kbps
Width : 720 pixels
Height : 400 pixels
Display aspect ratio : 16:9
Frame rate : 23.976 (24000/1001) fps
Color space : YUV
Chroma subsampling : 4:2:0
Bit depth : 8 bits
Scan type : Progressive
Compression mode : Lossy
Bits/(Pixel*Frame) : 0.232
Stream size : 486 MiB (80%)
Writing library : XviD 67
Audio #1
ID : 1
Format : AC-3
Format/Info : Audio Coding 3
Mode extension : CM (complete main)
Format settings, Endianness : Big
Codec ID : 2000
Duration : 42mn 27s
Bit rate mode : Constant
Bit rate : 192 Kbps
Channel(s) : 2 channels
Channel positions : Front: L R
Sampling rate : 48.0 KHz
Frame rate : 31.250 fps (1536 spf)
Compression mode : Lossy
Stream size : 58.3 MiB (10%)
Alignment : Split accross interleaves
Interleave, duration : 42 ms (1.00 video frame)
Interleave, preload duratio : 500 ms
Audio #2
ID : 2
Format : AC-3
Format/Info : Audio Coding 3
Mode extension : CM (complete main)
Format settings, Endianness : Big
Codec ID : 2000
Duration : 42mn 27s
Bit rate mode : Constant
Bit rate : 192 Kbps
Channel(s) : 2 channels
Channel positions : Front: L R
Sampling rate : 48.0 KHz
Frame rate : 31.250 fps (1536 spf)
Compression mode : Lossy
Stream size : 58.3 MiB (10%)
Alignment : Split accross interleaves
Interleave, duration : 42 ms (1.00 video frame)
Interleave, preload duratio : 500 ms

Скриншоты

Внимание! Раздача ведётся путём добавления новых серий

Внимание! Раздача ведётся путём добавления новых серий; при каждом добавлении создаётся новый торрент. Чтобы начать докачку новой серии,пользователям необходимо сделать следующее:
(1) остановить скачивание,
(2) удалить старый торрент у себя из клиента (старые серии удалять не надо),
(3) скачать новый торрент и запустить его у себя в клиенте вместо старого, при этом указать клиенту путь в старую папку куда и должнопроисходить скачивание новых серий.
Ваш клиент при этом должен произвести хеширование (проверку) старой папки (если не производит сам - помогите ему сделать это), и будет докачивать только те серии
которых у вас ещё нет. Старые серии при этом не удаляются, а продолжают раздаваться!
Eсли вы уже удалили старые серии, то предотвратить повторную закачку старых серий можно, отжав галочку в соответствующих местах при запуске нового торрента.
По возможности, желательно не удалять старые серии как можно дольше чтобы релизёр не столько продолжал раздавать старые серии, а смог сконцентрироваться на новых.
Релиз группы:
[cybertorrent.net].t3171.torrent 
Торрент: Зарегистрирован [ 2019-05-27 15:33 ] · 288567B5083AC13729E4B6C44C67B12E85508C7E

Скачать .torrent

Скачать

15 KB

Статус: проверено
Скачан: 0 раз
Размер: 4,68 GB
terms.php
Показать сообщения:    

Текущее время: 14-Ноя 04:05

Часовой пояс: UTC ± 0



Вы не можете начинать темы
Вы не можете отвечать на сообщения
Вы не можете редактировать свои сообщения
Вы не можете удалять свои сообщения
Вы не можете голосовать в опросах
Вы не можете прикреплять файлы к сообщениям
Вы можете скачивать файлы