Статистика раздачи
Размер:  697 MB   |    Зарегистрирован:  7 месяцев 28 дней   |    Скачан:  0 раз

Полного источника не было: Никогда

 
     
 
 

Гость ®

Пол:
Не указан

Черевички
Жанр: Фильм-опера
Страна: СССР
Студия: Центральная Объединённая киностудия художественных фильмов (ЦОКС)
Год выпуска: 1944
Продолжительность: 01:20:24
Режиссёр: Надежда Кошеверова, Михаил Шапиро
В ролях:
Григорий Большаков ... Вакула, кузнец, сын Солохи
Лилия Гриценко ... Оксана, дочь Чуба
Софья Големба ... Солоха, ведьма
Георгий Гумилевский ... чёрт (поёт Андрей Иванов)
Максим Михайлов ... Корний Чуб, казак
Николай Панчехин ... Голова
Николай Чесноков ... дьяк
Ольга Жизнева ... Екатерина II
Андрей Иванов ... Светлейший
Описание: Экранизация одноимённой оперы Петра Ильича Чайковского, либретто которой написано известным поэтом Яковом Полонским по мотивам повести Николая Васильевича Гоголя «Ночь перед Рождеством».
Солоха, мать кузнеца Вакулы, водится с нечистой силой. В его отсутствие она принимает гостей: Чёрта, Голову, Дьяка и Чуба — отца Оксаны. Гости прячутся в мешки, а вернувшийся от капризной красавицы Оксаны опечаленный Вакула решает навести в хате порядок. Он выносит мешки на улицу, где весело калядуют парубки и девушки, среди которых и Оксана. Она просит кузнеца достать ей черевички не хуже, чем у царицы. Вакула садится верхом на чёрта и мчится в царский дворец…
Дополнительная информация:
Релиз:
Автор рипа: pmv
* Найденный в сети исходник, к сожалению, не очень хорошего качества. Просьба ко всем любителям и ценителям кино помочь в поиске копии хорошего качества. Заранее выражаем всем откликнувшимся большое Спасибо за помощь.
* В фильме участвуют оркестр и хор Большого театра Союза ССР
Дирижёр: А.Мелик-Пашаев
Премьера фильма в СССР состоялась в Москве 21 апреля 1945 года
Сценаристы: Надежда Кошеверова, Михаил Шапиро
* Макси́м Дормидо́нтович Миха́йлов (13 [25] августа 1893 — 30 марта 1971) — русский, советский камерный и оперный певец (бас-профундо), актёр кино. Народный артист СССР (1940). Лауреат двух Сталинских премий первой степени (1941, 1942). Протодиакон Русской православной церкви.
В 1930 году оставил служение, не снимая сана, и поступил в оперную труппу Всесоюзного комитета по радиовещанию при НКПТ СССР (Москва), где был солистом (1930—1932).
В 1932—1956 годах — солист Большого театра СССР. Спел в 25 операх русских, советских и зарубежных авторов.
Пел в концертах. Выступал также как исполнитель русских народных песен («Степь да степь кругом», «Ночь осенняя», «Вдоль по Питерской»). Прекрасно удавались песни русских и зарубежных классиков, советских композиторов.
Голос певца был уникален. Обладая самой низкой разновидностью баса, имел необычайной чистоты и светлости высокие ноты, какие имеют и высокие басы, хотя и считается, что у низких басов верхов не бывает. Одновременно в низких нотах имел всю большую октаву, то есть весь диапазон оперного баса-профундо. Пение певца было глубоко народным. Лучшие традиции церковного и народного пения воплотил в оперных партиях. Ф. И. Шаляпин в конце жизни говорил: «Настоящий бас сейчас есть только в Москве — Максим Дормидонтович Михайлов… Большой театр не обеднел… Какой голос у Михайлова. Даже завидую ему».
(Материал из Википедии)
* Лилия Олимпиевна Гриценко (11 (24) декабря 1917 - 9 января 1989) в 1936 году после победы во Всесоюзной олимпиаде художественной самодеятельности, была принята в оперную студию при Большом театре СССР, где она училась в классе Е.К.Катульской. В 1937 году Лилия перешла в оперно-драматическую студию имени Станиславского (класс А.В.Неждановой), которую окончила в 1941 году. Но большую известность она получила как театральная актриса, играя на сцене Московских театров драмы имени Станиславского и имени Пушкина.
Дебют в кинематографе состоялся в 1944 году, когда Лилия Гриценко исполнила роль Оксаны в экранизации оперы Чайковского «Черевички». Оперную партию она исполняла сама.
Лилия Гриценко много выступала как профессиональная певица (лирическое сопрано) с программами русской классики, романсов и произведений современных авторов. Ей принадлежит немалая заслуга в возрождении на эстраде старинного романса.

* В мультфильме «Ночь перед Рождеством» (1951) Лилия Гриценко озвучила роль Оксаны.
IMDb = - (-) - https://www.imdb.com/title/tt5125104/
Кинопоиск = - (21) - https://www.kinopoisk.ru/film/cherevichki-1944-669462/
ПРОСЬБА к СКАЧАВШИМ. НЕ УХОДИТЕ С РАЗДАЧИ, ПОМОГИТЕ ДРУГИМ СКАЧАТЬ!!!
Качество видео: WEBRip
Формат видео: AVI
Видео: 400x288 (1.39:1), 25 fps, XviD build 73 ~1073 kbps avg, 0.37 bit/pixel
Аудио: 48 kHz, MPEG Layer 3, 2 ch, ~128.00 kbps avg

MediaInfo

General
Complete name : D:\torrents\Черевички (1944).avi
Format : AVI
Format/Info : Audio Video Interleave
File size : 697 MiB
Duration : 1 h 20 min
Overall bit rate : 1 212 kb/s
Writing library : VirtualDub build 35491/release
Video
ID : 0
Format : MPEG-4 Visual
Format profile : Advanced Simple@L5
Format settings, BVOP : 2
Format settings, QPel : No
Format settings, GMC : No warppoints
Format settings, Matrix : Default (H.263)
Codec ID : XVID
Codec ID/Hint : XviD
Duration : 1 h 20 min
Bit rate : 1 074 kb/s
Width : 400 pixels
Height : 288 pixels
Display aspect ratio : 1.389
Frame rate : 25.000 FPS
Color space : YUV
Chroma subsampling : 4:2:0
Bit depth : 8 bits
Scan type : Progressive
Compression mode : Lossy
Bits/(Pixel*Frame) : 0.373
Stream size : 618 MiB (89%)
Writing library : XviD 73
Audio
ID : 1
Format : MPEG Audio
Format version : Version 1
Format profile : Layer 3
Mode : Joint stereo
Mode extension : MS Stereo
Codec ID : 55
Codec ID/Hint : MP3
Duration : 1 h 20 min
Bit rate mode : Constant
Bit rate : 128 kb/s
Channel(s) : 2 channels
Sampling rate : 48.0 kHz
Compression mode : Lossy
Delay relative to video : 600 ms
Stream size : 73.6 MiB (11%)
Alignment : Split accross interleaves
Interleave, duration : 40 ms (1.00 video frame)
Interleave, preload duration : 500 ms

Скриншот c названием фильма

МОИ РАЗДАЧИ НА РУТРЕКЕРЕ: http://cybertorrent.ru/forum/tracker.php?rid=27390064
[cybertorrent.net].t317.torrent 
Торрент: Зарегистрирован [ 2019-03-18 10:04 ] · 2348066DC5FBDAE04A7D46809BD3D2A81AC36029

Скачать .torrent

Скачать

14 KB

Статус: проверено
Скачан: 0 раз
Размер: 697 MB
terms.php
Показать сообщения:    

Текущее время: 15-Ноя 20:51

Часовой пояс: UTC ± 0



Вы не можете начинать темы
Вы не можете отвечать на сообщения
Вы не можете редактировать свои сообщения
Вы не можете удалять свои сообщения
Вы не можете голосовать в опросах
Вы не можете прикреплять файлы к сообщениям
Вы можете скачивать файлы