Статистика раздачи
Размер:  1,46 GB   |    Зарегистрирован:  5 месяцев 25 дней   |    Скачан:  0 раз
Сидов:  3  [  0 KB/s  ]  
 
     
 
 

солнышко ®

Пол:
Не указан
Стаж:
8 месяцев 9 дней
Сообщений:
565

Ричард прощается / The Professor- Страна: США
Жанр: драма, комедия
Год выпуска: 2018
Продолжительность: 01:31:37-Перевод: Любительский (многоголосый закадровый) HDRezka Studio
Субтитры: русские (полные Focs), английские (полные)
Оригинальная аудиодорожка: английский-Режиссер: Уэйн Робертс / Wayne Roberts

В ролях: Джонни Депп, Зои Дойч, Розмари ДеУитт, Дэнни Хьюстон, Палома Квиатковски, Шиван Фэллон, Кейтлин Бернард, Фэрра Авива, Робин Брэдли, Кит МакКекни, Рон Ливингстон, Джастин Уоррингтон, Одесса Янг-Описание: Профессор колледжа решает жить на полную катушку после того, как ему ставят серьезный диагноз. Отныне все запреты сняты, а тайные желания могут наконец осуществиться!

Качество видео: WEB-DLRip-AVC (The.Professor.2018.1080p.AMZN.WEB-DL.DDP5.1.H.264-NTG)
Формат видео: MKV
Видео: AVC/H.264, 1024x552 (1.85:1), 23.976 fps, ~1831 Kbps, 0.135 bit/pixel
Аудио 1: 48 kHz, AC3, 2 ch, 192 kbps (русский)
Аудио 2: 48 kHz, AC3, 6 ch, 256 kbps (английский)
Формат субтитров: softsub (SRT)

MediaInfo

Общее
Уникальный идентификатор : 240631409732402110629631350228175381662 (0xB507EC7B4C3AF68F6DC5AF5462B5649E)
Полное имя : The.Professor.2018.WEB-DLRip-AVC.mkv
Формат : Matroska
Версия формата : Version 4
Размер файла : 1,46 Гбайт
Продолжительность : 1 ч. 31 м.
Общий поток : 2279 Кбит/сек
Название фильма : The Professor (2018)
Дата кодирования : UTC 2019-05-27 04:57:03
Программа кодирования : mkvmerge v34.0.0 ('Sight and Seen') 64-bit
Библиотека кодирования : libebml v1.3.7 + libmatroska v1.5.0
Обложка : Yes
Attachments : cover.jpg
Видео
Идентификатор : 1
Формат : AVC
Формат/Информация : Advanced Video Codec
Профиль формата : High@L4.1
Настройки формата : CABAC / 10 Ref Frames
Параметр CABAC формата : Да
Параметр RefFrames формата : 10 кадров
Идентификатор кодека : V_MPEG4/ISO/AVC
Продолжительность : 1 ч. 31 м.
Битрейт : 1831 Кбит/сек
Ширина : 1024 пикселя
Высота : 552 пикселя
Соотношение сторон : 1,85:1
Режим частоты кадров : Постоянный
Частота кадров : 23,976 (24000/1001) кадра/сек
Цветовое пространство : YUV
Субдискретизация насыщенности : 4:2:0
Битовая глубина : 8 бит
Тип развёртки : Прогрессивная
Бит/(Пиксели*Кадры) : 0.135
Размер потока : 1,17 Гбайт (80%)
Библиотека кодирования : x264 core 146 r2538 121396c
Настройки программы : cabac=1 / ref=10 / deblock=1:-2:-3 / analyse=0x3:0x113 / me=umh / subme=10 / psy=1 / psy_rd=0.95:0.07 / mixed_ref=1 / me_range=48 / chroma_me=1 / trellis=2 / 8x8dct=1 / cqm=0 / deadzone=21,11 / fast_pskip=1 / chroma_qp_offset=-3 / threads=6 / lookahead_threads=1 / sliced_threads=0 / nr=0 / decimate=1 / interlaced=0 / bluray_compat=0 / constrained_intra=0 / bframes=11 / b_pyramid=2 / b_adapt=2 / b_bias=0 / direct=3 / weightb=1 / open_gop=0 / weightp=2 / keyint=240 / keyint_min=23 / scenecut=40 / intra_refresh=0 / rc_lookahead=40 / rc=2pass / mbtree=0 / bitrate=1831 / ratetol=1.0 / qcomp=0.60 / qpmin=0 / qpmax=69 / qpstep=4 / cplxblur=20.0 / qblur=0.5 / vbv_maxrate=50000 / vbv_bufsize=62500 / nal_hrd=none / filler=0 / ip_ratio=1.40 / pb_ratio=1.30 / aq=1:1.00
Default : Да
Forced : Нет
Аудио #1
Идентификатор : 2
Формат : AC-3
Формат/Информация : Audio Coding 3
Коммерческое название : Dolby Digital
Идентификатор кодека : A_AC3
Продолжительность : 1 ч. 31 м.
Вид битрейта : Постоянный
Битрейт : 192 Кбит/сек
Каналы : 2 канала
ChannelLayout : L R
Частота : 48,0 КГц
Частота кадров : 31,250 кадров/сек (1536 SPF)
Битовая глубина : 16 бит
Метод сжатия : С потерями
Размер потока : 126 Мбайт (8%)
Заголовок : MVO, HDRezka Studio
Язык : Russian
ServiceKind/String : Complete Main
Default : Да
Forced : Нет
Аудио #2
Идентификатор : 3
Формат : AC-3
Формат/Информация : Audio Coding 3
Коммерческое название : Dolby Digital
Идентификатор кодека : A_AC3
Продолжительность : 1 ч. 31 м.
Вид битрейта : Постоянный
Битрейт : 256 Кбит/сек
Каналы : 6 каналов
ChannelLayout : L R C LFE Ls Rs
Частота : 48,0 КГц
Частота кадров : 31,250 кадров/сек (1536 SPF)
Битовая глубина : 16 бит
Метод сжатия : С потерями
Размер потока : 168 Мбайт (11%)
Заголовок : Original
Язык : English
ServiceKind/String : Complete Main
Default : Нет
Forced : Нет
Текст #1
Идентификатор : 4
Формат : UTF-8
Идентификатор кодека : S_TEXT/UTF8
Идентификатор кодека/Информация : UTF-8 Plain Text
Продолжительность : 1 ч. 26 м.
Битрейт : 95 бит/сек
ElementCount : 1367
Размер потока : 60,3 Кбайт (0%)
Заголовок : Full
Язык : Russian
Default : Нет
Forced : Нет
Текст #2
Идентификатор : 5
Формат : UTF-8
Идентификатор кодека : S_TEXT/UTF8
Идентификатор кодека/Информация : UTF-8 Plain Text
Продолжительность : 1 ч. 26 м.
Битрейт : 61 бит/сек
ElementCount : 1387
Размер потока : 38,8 Кбайт (0%)
Заголовок : Full
Язык : English
Default : Нет
Forced : Нет
Меню
00:00:00.000 : en:1
00:05:28.000 : en:2
00:17:16.000 : en:3
00:27:54.000 : en:4
00:37:36.000 : en:5
00:47:41.000 : en:6
00:57:23.000 : en:7
01:08:00.000 : en:8
01:19:04.000 : en:9
01:27:37.000 : en:10

Скриншот c названием фильма

Скриншоты

[cybertorrent.net].t3169.torrent 
Торрент: Зарегистрирован [ 2019-05-27 15:33 ] · 52DD90C0F7FC08D431BF09C619B298C1D0000E25

Скачать .torrent

Скачать

59 KB

Статус: проверено
Скачан: 0 раз
Размер: 1,46 GB
terms.php
Профиль [ЛС]
Показать сообщения:    

Текущее время: 22-Ноя 00:20

Часовой пояс: UTC ± 0



Вы не можете начинать темы
Вы не можете отвечать на сообщения
Вы не можете редактировать свои сообщения
Вы не можете удалять свои сообщения
Вы не можете голосовать в опросах
Вы не можете прикреплять файлы к сообщениям
Вы можете скачивать файлы