Статистика раздачи
Размер:  1,51 GB   |    Зарегистрирован:  5 месяцев 17 дней   |    Скачан:  0 раз

Полного источника не было: Никогда

 
     
 
 

Гость ®

Пол:
Не указан

Репортаж
Жанр: комедия
Год выпуска: 1995
Продолжительность: 01:28:23-Режиссёр: Владимир Балкашинов
В ролях: Игорь Бочкин, Марина Могилевская, Владимир Балкашинов, Давид Бабаев, Станислав Боклан, Анатолий Равикович, Денис Карасёв, Виктор Сарайкин, Юрий Рудченко, Николай Боклан, Георгий Поволоцкий, Анна Левченко, Виктор Андриенко, Александр Вилков, Алексей Богданович, Светлана Прус, Артур Арутюнян, Юлия Волчкова, Вячеслав Воронин, Людмила Лобза, Борис Харитонов, Борис Небиеридзе, Ирина Кривошеева-Описание:
Американская журналистка узнает о докторе Пештеряну, который изобрёл «вакцину любви», и скрывается где-то во Вьетнаме, и захотела снять о нём репортаж. Для этого приезжает в Россию, и обращается за помощью к давнему другу, агенту ЦРУ. Он предлагает ей в помощники русского мужчину, Павла Иванова. Есть только одна небольшая проблема – Паша в долгом запое, и как раз из-за несчастной любви. Режиссер постарался уместить в одном фильме как можно больше самых известных кино штампов-Доп. информация: Качество лучше чем DVD
AC-3 звук взят с DVD
Сэмпл: 2минуты-Качество видео: WEBRip (с онлайн-кинотеатра)
Формат видео: MKV
Видео: AVC, 744х576, 1,292, 25,000 кадров/сек, 1799 Кбит/сек
Аудио 1: AAC, 44,0 КГц, 192 Кбит/сек, 2 канала
Аудио 2: AC-3, 48,0 КГц, 448 Кбит/сек, 6 каналов (DVD)

Сравнение с DVD

DVD
6 скринов

MediaInfo

Общее
Уникальный идентификатор : 108734408352905542062423200679549436352 (0x51CD7C3CD4C3748DF8B1C1C5A73781C0)
Полное имя : Репортаж.1995.WEBRip.mkv
Формат : Matroska
Версия формата : Version 4
Размер файла : 1,51 Гбайт
Продолжительность : 1 ч. 28 м.
Общий поток : 2442 Кбит/сек
Название фильма : Репортаж / 1995 / WEBRip
Дата кодирования : UTC 2019-05-24 08:07:03
Программа кодирования : mkvmerge v34.0.0 ('Sight and Seen') 64-bit
Библиотека кодирования : libebml v1.3.7 + libmatroska v1.5.0
Видео
Идентификатор : 1
Формат : AVC
Формат/Информация : Advanced Video Codec
Профиль формата : Baseline@L3.1
Настройки формата : 1 Ref Frames
Параметр CABAC формата : Нет
Параметр RefFrames формата : 1 кадр
Идентификатор кодека : V_MPEG4/ISO/AVC
Продолжительность : 1 ч. 28 м.
Битрейт : 1799 Кбит/сек
Ширина : 744 пикселя
Высота : 576 пикселей
Соотношение сторон : 1,292
Режим частоты кадров : Постоянный
Частота кадров : 25,000 кадров/сек
Цветовое пространство : YUV
Субдискретизация насыщенности : 4:2:0
Битовая глубина : 8 бит
Тип развёртки : Прогрессивная
Бит/(Пиксели*Кадры) : 0.168
Размер потока : 1,11 Гбайт (74%)
Заголовок : Репортаж / 1995 / WEBRip
Язык : Russian
Default : Да
Forced : Нет
Аудио #1
Идентификатор : 2
Формат : AAC LC
Формат/Информация : Advanced Audio Codec Low Complexity
Идентификатор кодека : A_AAC-2
Продолжительность : 1 ч. 28 м.
Битрейт : 192 Кбит/сек
Каналы : 2 канала
ChannelLayout : L R
Частота : 44,1 КГц
Частота кадров : 43,066 кадра/сек (1024 SPF)
Метод сжатия : С потерями
Размер потока : 121 Мбайт (8%)
Язык : Russian
Default : Да
Forced : Нет
Аудио #2
Идентификатор : 3
Формат : AC-3
Формат/Информация : Audio Coding 3
Коммерческое название : Dolby Digital
Идентификатор кодека : A_AC3
Продолжительность : 1 ч. 28 м.
Вид битрейта : Постоянный
Битрейт : 448 Кбит/сек
Каналы : 6 каналов
ChannelLayout : L R C LFE Ls Rs
Частота : 48,0 КГц
Частота кадров : 31,250 кадров/сек (1536 SPF)
Битовая глубина : 16 бит
Метод сжатия : С потерями
Размер потока : 283 Мбайт (18%)
Заголовок : DVD
Язык : Russian
ServiceKind/String : Complete Main
Default : Нет
Forced : Нет
[cybertorrent.net].t3157.torrent 
Торрент: Зарегистрирован [ 2019-05-27 15:33 ] · 84CA561CF643A3B2923CE18DB025B86EE90EA687

Скачать .torrent

Скачать

16 KB

Статус: проверено
Скачан: 0 раз
Размер: 1,51 GB
terms.php
Показать сообщения:    

Текущее время: 14-Ноя 06:44

Часовой пояс: UTC ± 0



Вы не можете начинать темы
Вы не можете отвечать на сообщения
Вы не можете редактировать свои сообщения
Вы не можете удалять свои сообщения
Вы не можете голосовать в опросах
Вы не можете прикреплять файлы к сообщениям
Вы можете скачивать файлы