Статистика раздачи
Размер:  2,18 GB   |    Зарегистрирован:  5 месяцев 25 дней   |    Скачан:  0 раз

Полного источника не было: Никогда

 
     
 
 

Гость ®

Пол:
Не указан

Кровью и потом: Анаболики / Pain & Gain
Страна: США
Жанр: боевик, криминал, комедия
Год выпуска: 2013
Продолжительность: 02:09:36
Перевод: Авторский (одноголосый закадровый) Андрей Гаврилов
Перевод 2: Авторский (одноголосый закадровый) Леонид Володарский
Субтитры: Английские (forced)
Режиссер: Майкл Бэй / Michael Bay
В ролях: Марк Уолберг, Дуэйн Джонсон, Энтони Маки, Эд Харрис, Тони Шэлуб, Кен Жонг, Виорика Пинеда, Роб Кордри, Ребел Уилсон
Описание: Дэниэл Луго работает тренером фитнеса. Тренер, как тренер – не самая низкооплачиваемая работа, но и особняк на зарплату не купишь. А тут каждый день по телевидению показывают богатых и знаменитых. Ну как тут жить дальше. Вот однажды Дэниэл и понял, что все, больше не может вот так жить, без яхт, особняков и шикарных фотомоделей. А как же все это получить? Ну, кончено же, заработать все не удастся. Часть придется украсть. Причем значительную часть. Ну, а если не украсть, то у кого-нибудь отобрать. А так как наш герой еще и большой поклонник киношных боевиков, план у него складывается почти мгновенно. Надо просто похитить одного из богатых клиентов спортзала и отобрать у него деньги. Но одному ему с этим не справиться. И тогда наш не блещущий интеллектом герой находит еще парочку качков себе под стать и предлагает им вступить в дело. Приятели с радостью соглашаются и начинают претворять план в действие. Вот только проблема в том, что все трое просто накачанные идиоты, которые не в состоянии составить никакого, хоть сколько-нибудь серьезного плана, и тем более его осуществить. Эта троица дебилов наступает на все грабли, на какие только можно наступить, и в результате попадает в немыслимое количество сногсшибательных ситуаций...

Сэмпл: http://multi-up.com/1232904
Качество видео: BDRip (Исходник BDRemux 1080p)
Формат видео: AVI
Видео: XviD 73, 720x304, (2,35:1), 23,976 fps, 1617 Кбит/с, 8 бит, 0.30 bit/pixel
Аудио: Русский (АС3, 6 ch (Front: L C R, Side: L R, LFE), 48,0 KHz, 384 Kbps Андрей Гаврилов
Аудио 2: Русский (АС3, 6 ch (Front: L C R, Side: L R, LFE), 48,0 KHz, 384 Kbps Леонид Володарский

MediaInfo

Общее
Полное имя : D:\Фильмы на трекер\Кровью и потом Анаболики (боевик, криминал, комедия 2013 год).avi
Формат : AVI
Формат/Информация : Audio Video Interleave
Профиль формата : OpenDML
Размер файла : 2,18 Гбайт
Продолжительность : 2 ч. 9 м.
Общий поток : 2403 Кбит/сек
Программа кодирования : VirtualDubMod 1.5.10.2 (build 2540/release)
Библиотека кодирования : VirtualDubMod build 2540/release
Видео
Идентификатор : 0
Формат : MPEG-4 Visual
Профиль формата : Advanced Simple@L5
Параметр BVOP формата : 2
Параметр QPel формата : Нет
Параметр GMC формата : Без точки перехода
Параметр матрицы формата : Выборочная
Идентификатор кодека : XVID
Идентификатор кодека/Подсказка : XviD
Продолжительность : 2 ч. 9 м.
Битрейт : 1617 Кбит/сек
Ширина : 720 пикселей
Высота : 304 пикселя
Соотношение сторон : 2,35:1
Частота кадров : 23,976 (23976/1000) кадра/сек
Цветовое пространство : YUV
Субдискретизация насыщенности : 4:2:0
Битовая глубина : 8 бит
Тип развёртки : Прогрессивная
Метод сжатия : С потерями
Бит/(Пиксели*Кадры) : 0.308
Размер потока : 1,46 Гбайт (67%)
Библиотека кодирования : XviD 73
Аудио #1
Идентификатор : 1
Формат : AC-3
Формат/Информация : Audio Coding 3
Расширение режима : CM (complete main)
Параметр Endianness формата : Big
Идентификатор кодека : 2000
Продолжительность : 2 ч. 9 м.
Вид битрейта : Постоянный
Битрейт : 384 Кбит/сек
Каналы : 6 каналов
Расположение каналов : Front: L C R, Side: L R, LFE
Частота : 48,0 КГц
Частота кадров : 31,250 кадров/сек (1536 spf)
Метод сжатия : С потерями
Размер потока : 356 Мбайт (16%)
Выравнивание : Разделение по промежуткам
Продолжительность промежутка : 42 мс. (1,00 видеокадр)
Время предзагрузки промежутка : 500 мс.
Аудио #2
Идентификатор : 2
Формат : AC-3
Формат/Информация : Audio Coding 3
Расширение режима : CM (complete main)
Параметр Endianness формата : Big
Идентификатор кодека : 2000
Продолжительность : 2 ч. 9 м.
Вид битрейта : Постоянный
Битрейт : 384 Кбит/сек
Каналы : 6 каналов
Расположение каналов : Front: L C R, Side: L R, LFE
Частота : 48,0 КГц
Частота кадров : 31,250 кадров/сек (1536 spf)
Метод сжатия : С потерями
Размер потока : 356 Мбайт (16%)
Выравнивание : Разделение по промежуткам
Продолжительность промежутка : 42 мс. (1,00 видеокадр)
Время предзагрузки промежутка : 500 мс.

Скриншот c названием фильма

Скриншоты

[cybertorrent.net].t3149.torrent 
Торрент: Зарегистрирован [ 2019-05-26 17:05 ] · 0A77F53C0F8459987338AE78DF085AC29F7A9A4A

Скачать .torrent

Скачать

11 KB

Статус: проверено
Скачан: 0 раз
Размер: 2,18 GB
terms.php
Показать сообщения:    

Текущее время: 21-Ноя 10:04

Часовой пояс: UTC ± 0



Вы не можете начинать темы
Вы не можете отвечать на сообщения
Вы не можете редактировать свои сообщения
Вы не можете удалять свои сообщения
Вы не можете голосовать в опросах
Вы не можете прикреплять файлы к сообщениям
Вы можете скачивать файлы