Статистика раздачи
Размер:  1,46 GB   |    Зарегистрирован:  5 месяцев 26 дней   |    Скачан:  0 раз

Полного источника не было: Никогда

 
     
 
 

karlll ®

Пол:
Не указан
Стаж:
8 месяцев 9 дней
Сообщений:
171

Константин: Город Демонов. Фильм / Constantine City of Demons. The Movie
Страна: США
Жанр: мультфильм, ужасы, фэнтези
Год выпуска: 2018
Продолжительность: 01:30:09-Перевод: Любительский (многоголосый закадровый) | Flarrow Films
Субтитры: нет
Оригинальная аудиодорожка: нет-Режиссер: Даг Мерфи / Doug Murphy-В ролях: Лора Бэйли, Робин Аткин Даунс, Мэтт Райан, Кевин Майкл Ричардсон, Джим Мескимен, Эмили О’Брайэн, Рэйчел Кимси, Дэмиан О’Хейр, Рик Д. Вассерман-Описание: Однажды к Джону приходит его лучший друг Чез, с которым они не виделись вот уже несколько лет. Но вместо радостной встречи старых приятелей, Чез поведал Константину трагическую историю. Его любимая и единственная дочка Триш впала в кому, и врачи в её случае лишь разводят руками, не зная, как и чем можно помочь девочке. Но Чез убеждён, что дело вовсе не в болезни, его дочь стала жертвой чёрной магии. Константин решает взяться за расследование и помочь своему лучшему другу в его беде.- -Качество видео: BDRip
Формат видео: AVI
Видео: 704x400 (1.76:1), 23.976 fps, XviD build 73 ~1854 kbps avg, 0.27 bit/pixel
Аудио: 48 kHz, AC3 Dolby Digital, 3/2 (L,C,R,l,r) + LFE ch, ~448 kbps-[box]Сэмпл[/box]-

MediaInfo

Код:Формат : AVI
Формат/Информация : Audio Video Interleave
Размер файла : 1,46 Гбайт
Продолжительность : 1 ч. 30 м.
Общий поток : 2312 Кбит/сек
Название фильма : Константин Город Демонов. Фильм_2018_BDRip
Программа кодирования : VirtualDubMod 1.5.10.3 | www.virtualdub-fr.org || (build 2550/release)
Авторское право : порошков
Видео
Идентификатор : 0
Формат : MPEG-4 Visual
Профиль формата : Advanced Simple@L5
Настройки формата : BVOP1 / Custom Matrix
Параметр BVOP формата : 1
Параметр QPel формата : Нет
Параметр GMC формата : Без точки перехода
Параметр матрицы формата : Выборочная
Идентификатор кодека : XVID
Идентификатор кодека/Подсказка : XviD
Продолжительность : 1 ч. 30 м.
Битрейт : 1855 Кбит/сек
Ширина : 704 пикселя
Высота : 400 пикселей
Соотношение сторон : 16:9
Частота кадров : 23,976 (24000/1001) кадра/сек
Цветовое пространство : YUV
Субдискретизация насыщенности : 4:2:0
Битовая глубина : 8 бит
Тип развёртки : Прогрессивная
Метод сжатия : С потерями
Бит/(Пиксели*Кадры) : 0.275
Размер потока : 1,17 Гбайт (80%)
Библиотека кодирования : XviD 73
Аудио
Идентификатор : 1
Формат : AC-3
Формат/Информация : Audio Coding 3
Коммерческое название : Dolby Digital
Идентификатор кодека : 2000
Продолжительность : 1 ч. 30 м.
Вид битрейта : Постоянный
Битрейт : 448 Кбит/сек
Каналы : 6 каналов
ChannelLayout : L R C LFE Ls Rs
Частота : 48,0 КГц
Частота кадров : 31,250 кадров/сек (1536 SPF)
Битовая глубина : 16 бит
Метод сжатия : С потерями
Размер потока : 289 Мбайт (19%)
Выравнивание : Разделение по промежуткам
Продолжительность промежутка : 42 мс. (1,00 видеокадр)
Время предзагрузки промежутка : 500 мс.
ServiceKind/String : Complete Main

Скриншоты


[cybertorrent.net].t3148.torrent 
Торрент: Зарегистрирован [ 2019-05-26 17:05 ] · 7558ADD82306C6FC2AEE766560A3A57057DC3309

Скачать .torrent

Скачать

15 KB

Статус: проверено
Скачан: 0 раз
Размер: 1,46 GB
terms.php
Профиль [ЛС]
Показать сообщения:    

Текущее время: 22-Ноя 07:59

Часовой пояс: UTC ± 0



Вы не можете начинать темы
Вы не можете отвечать на сообщения
Вы не можете редактировать свои сообщения
Вы не можете удалять свои сообщения
Вы не можете голосовать в опросах
Вы не можете прикреплять файлы к сообщениям
Вы можете скачивать файлы