Статистика раздачи
Размер:  1,59 GB   |    Зарегистрирован:  5 месяцев 17 дней   |    Скачан:  0 раз

Полного источника не было: Никогда

 
     
 
 

Гость ®

Пол:
Не указан

-Старая гвардия-- -Год выпуска: 2019
Производство: ТелеМастер, Приор продакшн
Жанр: детектив, мелодрама
Продолжительность: ~00:48:00
Субтитры: нет-Режиссёр: Наталья Хлопецкая-В ролях: Катерина Шпица, Вадим Андреев, Анатолий Лобоцкий, Алёна Хмельницкая, Вера Воронкова, Владимир Демидов-Описание: Ведя дело об аварии со смертельным исходом, молодой следователь Вера допускает ошибку, которая может стоить ей карьеры. Стремясь спасти свою протеже от увольнения, подполковник Александра Романова дает Вере другое дело: убийство королевы красоты, совершенное почти 15 лет назад. Чтобы помочь Веронике в расследовании, Романова дает ей в подчинение двух консультантов-пенсионеров: бывалого оперативника Федора Анатольевича Бобрыкина и гениального криминалиста Григория Петровича Сапронова. Эти мастодонты сыска плохо знакомы с современными методами и технологиями, зато хорошо знают подробности дела – ведь именно они вели его в прошлом. Командовать ветеранами трудно, найти с ними общий язык еще труднее, слишком уж они разные.-Предыдущие и альтернативные раздачи-Реклама: Нет- - -Качество: WEBRip-AVC / WEBRip 1080p
Формат: MKV
Видео кодек: H.264
Аудио кодек: AC3-Видео: MPEG-4 AVC, 768x432 (16:9), 25.000 fps, ~1000 kbps avg, 0.121 bit/pixel
Аудио: 48 kHz, AC3 Dolby Digital, 2/0 (L,R) ch, ~192 kbps avg-

MediaInfo

Код:Complete name : D:\Раздача\Старая гвардия (2019)\01 - Старая гвардия (2019) WEBRip-AVC_ivanes.mkv
Format : Matroska
Format version : Version 2
File size : 422 MiB
Duration : 49 min 25 s
Overall bit rate : 1 193 kb/s
Movie name : 01 - Старая гвардия (2019) WEBRip-AVC_ivanes
Encoded date : UTC 2019-05-26 08:32:34
Writing application : mkvmerge v4.4.0 ('Die Wiederkehr') сборка от Jan 3 2011 21:40:45
Writing library : libebml v1.0.0 + libmatroska v1.0.0
Cover : Yes
Attachments : cover.jpg
Video
ID : 1
Format : AVC
Format/Info : Advanced Video Codec
Format profile : High@L4.1
Format settings, CABAC : Yes
Format settings, RefFrames : 10 frames
Codec ID : V_MPEG4/ISO/AVC
Duration : 49 min 25 s
Bit rate : 1 000 kb/s
Width : 768 pixels
Height : 432 pixels
Display aspect ratio : 16:9
Frame rate mode : Constant
Frame rate : 25.000 FPS
Color space : YUV
Chroma subsampling : 4:2:0
Bit depth : 8 bits
Scan type : Progressive
Bits/(Pixel*Frame) : 0.121
Stream size : 345 MiB (82%)
Title : Rip by ivanes
Writing library : x264 core 157 r2969 d4099dd
Encoding settings : cabac=1 / ref=10 / deblock=1:-3:-3 / analyse=0x3:0x113 / me=umh / subme=8 / psy=1 / psy_rd=1.00:0.00 / mixed_ref=1 / me_range=32 / chroma_me=1 / trellis=2 / 8x8dct=1 / cqm=0 / deadzone=21,11 / fast_pskip=0 / chroma_qp_offset=-2 / threads=12 / lookahead_threads=3 / sliced_threads=0 / nr=0 / decimate=1 / interlaced=0 / bluray_compat=0 / constrained_intra=0 / bframes=10 / b_pyramid=2 / b_adapt=2 / b_bias=0 / direct=1 / weightb=1 / open_gop=0 / weightp=2 / keyint=250 / keyint_min=25 / scenecut=40 / intra_refresh=0 / rc_lookahead=60 / rc=2pass / mbtree=0 / bitrate=1000 / ratetol=1.0 / qcomp=0.60 / qpmin=0 / qpmax=69 / qpstep=4 / cplxblur=20.0 / qblur=0.5 / vbv_maxrate=50000 / vbv_bufsize=62500 / nal_hrd=none / filler=0 / ip_ratio=1.40 / pb_ratio=1.30 / aq=1:1.00
Default : Yes
Forced : No
Statistics Tags Issue : mkvmerge v10.0.0 ('To Drown In You') 64bit 2019-05-26 08:30:53 / mkvmerge v4.4.0 ('Die Wiederkehr') сборка от Jan 3 2011 21:40:45 2019-05-26 08:32:34
FromStats_BitRate : 998634
FromStats_Duration : 00:49:25.880000000
FromStats_FrameCount : 74147
FromStats_StreamSize : 370228836
Audio
ID : 2
Format : AC-3
Format/Info : Audio Coding 3
Format settings, Endianness : Big
Codec ID : A_AC3
Duration : 49 min 25 s
Bit rate mode : Constant
Bit rate : 192 kb/s
Channel(s) : 2 channels
Channel positions : Front: L R
Sampling rate : 44.1 kHz
Frame rate : 28.711 FPS (1536 SPF)
Bit depth : 16 bits
Compression mode : Lossy
Stream size : 67.9 MiB (16%)
Language : Russian
Service kind : Complete Main
Default : Yes
Forced : No

Скриншоты

[cybertorrent.net].t3147.torrent 
Торрент: Зарегистрирован [ 2019-05-26 17:05 ] · F78E693E9AF13E3F4BB9A1CB8F906896222E7657

Скачать .torrent

Скачать

17 KB

Статус: проверено
Скачан: 0 раз
Размер: 1,59 GB
terms.php
Показать сообщения:    

Текущее время: 13-Ноя 00:05

Часовой пояс: UTC ± 0



Вы не можете начинать темы
Вы не можете отвечать на сообщения
Вы не можете редактировать свои сообщения
Вы не можете удалять свои сообщения
Вы не можете голосовать в опросах
Вы не можете прикреплять файлы к сообщениям
Вы можете скачивать файлы