Статистика раздачи
Размер:  2,6 GB   |    Зарегистрирован:  5 месяцев 20 дней   |    Скачан:  0 раз
Сидов:  56  [  0 KB/s  ]  
 
     
 
 

Гость ®

Пол:
Не указан

Синее озеро
Год выпуска: 2019
Производство: Россия, Паламеда Продакшн, Фабула
Жанр: Мелодрама
Продолжительность: 4 x ~ 00:47:00
Субтитры: Отсутствуют
Режиссёр: Валерий Девятилов
В ролях: Елена Аросьева, Ангелина Поплавская, Юрий Батурин, Владимир Колганов, Виктория Адельфина, Зоя Антонова, София Кравчук
Описание: Нина была счастлива в браке, пока не узнала, что муж Вадим планирует развестись и забрать себе дочку. Нина забирает малышку и сбегает. Водитель попутной машины, Михаил, проникнувшись ее проблемами, привозит Нину с дочкой в свой родной городок Синеозерск. Нина устраивается в местный пансионат горничной. Она уверена, что муж ее здесь не найдет. Но на работе у Нины появляется враг — Анна, жена Михаила, которая замечает симпатию между Ниной и своим мужем. Тогда Анна решает избавиться от соперницы…
Автор релиза:
Реклама: Отсутствует
Сэмпл: http://sendfile.su/1496400
Качество: SATRip
Формат: AVI
Видео кодек: XviD
Аудио кодек: MP3
Видео: XviD, 720x400, ~ 1700 Кбит/с, 0.236 bit/pixel
Аудио: МР3, 2 ch, 192 Кбит/с

MI

Общее
Полное имя : D:\Синее.Озеро.XviD.2019.SATRip.7turza\01.Синее.Озеро.7turza.avi
Формат : AVI
Формат/Информация : Audio Video Interleave
Размер файла : 649 Мбайт
Продолжительность : 47 м. 44 с.
Общий поток : 1902 Кбит/сек
Программа кодирования : Lavf58.20.100
Библиотека кодирования : VirtualDub build 35576/release
Видео
Идентификатор : 0
Формат : MPEG-4 Visual
Профиль формата : Advanced Simple@L5
Настройки формата : BVOP1
Параметр BVOP формата : 1
Параметр QPel формата : Нет
Параметр GMC формата : Без точки перехода
Параметр матрицы формата : Default (H.263)
Идентификатор кодека : XVID
Идентификатор кодека/Подсказка : XviD
Продолжительность : 47 м. 44 с.
Битрейт : 1697 Кбит/сек
Ширина : 720 пикселей
Высота : 400 пикселей
Соотношение сторон : 16:9
Частота кадров : 25,000 кадров/сек
Цветовое пространство : YUV
Субдискретизация насыщенности : 4:2:0
Битовая глубина : 8 бит
Тип развёртки : Прогрессивная
Бит/(Пиксели*Кадры) : 0.236
Размер потока : 579 Мбайт (89%)
Библиотека кодирования : XviD 67
Аудио
Идентификатор : 1
Формат : MPEG Audio
Версия формата : Version 1
Профиль формата : Layer 3
Настройки формата : Joint stereo / MS Stereo
Идентификатор кодека : 55
Идентификатор кодека/Подсказка : MP3
Продолжительность : 47 м. 44 с.
Вид битрейта : Постоянный
Битрейт : 192 Кбит/сек
Каналы : 2 канала
Частота : 48,0 КГц
Размер потока : 65,6 Мбайт (10%)
Выравнивание : Соединение по промежуткам
Продолжительность промежутка : 24 мс. (0,60 видеокадр)
Время предзагрузки промежутка : 504 мс.
Библиотека кодирования : LAME3.10UDD4ku”χ

Скриншоты

Предыдущие и альтернативные раздачи
[cybertorrent.net].t3140.torrent 
Торрент: Зарегистрирован [ 2019-05-26 17:05 ] · EC7B0075EF97814F0EB70F7B84F110A38D277939

Скачать .torrent

Скачать

14 KB

Статус: проверено
Скачан: 0 раз
Размер: 2,6 GB
terms.php
Показать сообщения:    

Текущее время: 15-Ноя 20:48

Часовой пояс: UTC ± 0



Вы не можете начинать темы
Вы не можете отвечать на сообщения
Вы не можете редактировать свои сообщения
Вы не можете удалять свои сообщения
Вы не можете голосовать в опросах
Вы не можете прикреплять файлы к сообщениям
Вы можете скачивать файлы