Статистика раздачи
Размер:  24,53 GB   |    Зарегистрирован:  5 месяцев 16 дней   |    Скачан:  0 раз
Сидов:  1  [  0 KB/s  ]   Личеров:  1  [  0 KB/s  ]  
 
     
 
 

Гость ®

Пол:
Не указан

Синдром Дракона
Год выпуска: 2012
Производство: Кинокомпания "RUmedia"
Жанр: детектив, психологический триллер
Продолжительность: 12 x ~ 00:55:00
Субтитры: Нет
Режиссёр: Николай Хомерики
В ролях: Леонид Бичевин, Алексей Серебряков, Дмитрий Муляр, Андрей Мерзликин, Алексей Гуськов, Екатерина Климова, Кристина Асмус, Карина Андоленко, Елена Шевченко, Лев Борисов, Владимир Капустин, Юрий Цурило, Карэн Бадалов, Николай Пономаренко, Никита Емшанов, Александр Семчев, Алексей Кравченко, Павел Майков, Артём Ткаченко, Борис Каморзин, Юрий Назаров, Сергей Озиряный, Даниил Белых, Сергей Петров (II), Александр Ивашкевич, Артём Душкин, Ольга Чурсина, Людмила Чурсина, Рамис Ибрагимов, Иван Иванов (V), Ирина Скобцева, Алексей Большой, Сергей Большой, Михаил Евланов, Владимир Ямненко, Никита Ямненко, Виктор Сарайкин, Вадим Степанцов, Наталья Романычева
Описание: Сюжет фильма основан на реальных фактах, связанных с обнаружением в 1993 году в украинском городе Кировограде огромной коллекции древностей, стоимостью около миллиарда долларов, принадлежавшей обычному электрику Александру Ильину, а также на материалах расследований, гипотезах и домыслах, появившихся по этому поводу за пятнадцать лет.
2008 год. Одесса. Таможенники по анонимному звонку задерживают человека, в багаже которого обнаруживают редчайшую книгу – никому не известный экземпляр «Морского устава» Петра Первого. ФСБ начинает расследование, которое сопровождается рядом необъяснимых смертей. Расследовать судьбу коллекции и связанные с ней смерти поручено капитану Волкову. Волков – молодой, но талантливый и удачливый опер. Смерть всегда будет в двух шагах от него, но где бы Волков ни был – в Одессе, Москве, Праге или Кировограде – из любых ситуаций он будет выходить невредимым. Запутанным будет не только дело, но и личная жизнь капитана Волкова. В него влюбятся две красавицы, и непонятно лишь, полюбили они искренне, или это всего лишь часть их хитрого плана.
1953 год. Группа высокопоставленных чиновников армии, партии и спецслужб решает в смутное для страны время собрать в потаенном месте все сокровища, награбленные в ходе «официальных репрессий» и вывезенные из побежденной Германии. Хранителями бесценной коллекции становятся молодой разведчик Терехов и освобожденный из тюрьмы коллекционер Авдеев. Терехов – беспринципный и жестокий чекист, умный и порочный человек, который сразу попытается подавить волю Авдеева, но Авдеев будет бороться за свою свободу и настоящую любовь...
Реклама: Нет
Сэмпл: http://multi-up.com/1232749
Качество: WEBRip 1080p
Формат: MKV
Видео кодек: H.264
Аудио кодек: AC3
Видео: MPEG-4 (AVC), 1920х1080, 25 fps, ~ 5000 kbps, ~ 0.096 bit/pixel
Аудио: AC3, 2 ch, 192 kbps, 48.0 kHz

MI

General
Unique ID : 281719200608155084586395602532467132121 (0xD3F124F9C21B027115DD7FC1F65AC6D9)
Complete name : Синдром Дракона (01 сер.).mkv
Format : Matroska
Format version : Version 4
File size : 1.92 GiB
Duration : 53 min 8 s
Overall bit rate : 5 185 kb/s
Encoded date : UTC 2019-05-23 12:52:53
Writing application : mkvmerge v34.0.0 ('Sight and Seen') 64-bit
Writing library : libebml v1.3.7 + libmatroska v1.5.0
Video
ID : 1
Format : AVC
Format/Info : Advanced Video Codec
Format profile : High@L4
Format settings : CABAC / 3 Ref Frames
Format settings, CABAC : Yes
Format settings, ReFrames : 3 frames
Codec ID : V_MPEG4/ISO/AVC
Duration : 53 min 8 s
Bit rate : 5 000 kb/s
Width : 1 920 pixels
Height : 1 080 pixels
Display aspect ratio : 16:9
Frame rate mode : Constant
Frame rate : 25.000 FPS
Color space : YUV
Chroma subsampling : 4:2:0
Bit depth : 8 bits
Scan type : Progressive
Bits/(Pixel*Frame) : 0.096
Stream size : 1.85 GiB (96%)
Writing library : x264 core 142 r2479 dd79a61
Encoding settings : cabac=1 / ref=3 / deblock=1:0:0 / analyse=0x3:0x133 / me=hex / subme=6 / psy=1 / psy_rd=1.00:0.00 / mixed_ref=0 / me_range=16 / chroma_me=1 / trellis=1 / 8x8dct=1 / cqm=0 / deadzone=21,11 / fast_pskip=0 / chroma_qp_offset=-2 / threads=12 / lookahead_threads=2 / sliced_threads=0 / nr=0 / decimate=1 / interlaced=0 / bluray_compat=0 / constrained_intra=0 / bframes=3 / b_pyramid=1 / b_adapt=2 / b_bias=0 / direct=1 / weightb=1 / open_gop=0 / weightp=2 / keyint=96 / keyint_min=49 / scenecut=0 / intra_refresh=0 / rc_lookahead=40 / rc=2pass / mbtree=1 / bitrate=5000 / ratetol=1.0 / qcomp=0.60 / qpmin=0 / qpmax=69 / qpstep=4 / cplxblur=20.0 / qblur=0.5 / ip_ratio=1.40 / aq=1:1.00
Default : Yes
Forced : No
Color range : Limited
Color primaries : BT.709
Transfer characteristics : BT.709
Matrix coefficients : BT.709
Audio
ID : 2
Format : AC-3
Format/Info : Audio Coding 3
Commercial name : Dolby Digital
Codec ID : A_AC3
Duration : 53 min 8 s
Bit rate mode : Constant
Bit rate : 192 kb/s
Channel(s) : 2 channels
Channel layout : L R
Sampling rate : 48.0 kHz
Frame rate : 31.250 FPS (1536 SPF)
Bit depth : 16 bits
Compression mode : Lossy
Stream size : 73.0 MiB (4%)
Service kind : Complete Main
Default : Yes
Forced : No

Скриншоты

Предыдущие и альтернативные раздачи
[cybertorrent.net].t3138.torrent 
Торрент: Зарегистрирован [ 2019-05-26 17:05 ] · 16B3469C210951AF09485812992354B7B8D179E3

Скачать .torrent

Скачать

63 KB

Статус: проверено
Скачан: 0 раз
Размер: 24,53 GB
terms.php
Показать сообщения:    

Текущее время: 12-Ноя 06:23

Часовой пояс: UTC ± 0



Вы не можете начинать темы
Вы не можете отвечать на сообщения
Вы не можете редактировать свои сообщения
Вы не можете удалять свои сообщения
Вы не можете голосовать в опросах
Вы не можете прикреплять файлы к сообщениям
Вы можете скачивать файлы