Статистика раздачи
Размер:  1,46 GB   |    Зарегистрирован:  5 месяцев 18 дней   |    Скачан:  0 раз

Полного источника не было: Никогда

 
     
 
 

karlll ®

Пол:
Не указан
Стаж:
8 месяцев 1 день
Сообщений:
171

Питер Пэн: В поисках магической книги / Peter Pan: The Quest for the Never Book
Страна: Индия
Жанр: мультфильм
Год выпуска: 2018
Продолжительность: 01:28:17-Перевод: Профессиональный (многоголосый закадровый)
Субтитры: нет
Оригинальная аудиодорожка: нет-Режиссер:
Чандрасекаран / Chandrasekaran-В ролях:
Мишель Кребер, Майкл Добсон, Мэтт Хилл, Мишель Молино, Сара Наточенни-Описание:
Нетландия находится в большой опасности, когда знаменитая Нигдешняя Книга попадает в руки хитрого Капитана крюка, который злоупотребляет своей магической силой, чтобы дать волю злым монстрам, чтобы уничтожить Питера Пэна и его друзей.
Сможет ли Питер выполнить легендарное пророчество Нигдешной книги с помощью своих друзей? Сможет ли он спасти Нетландию и Лондон?-Качество видео: WEBRip
Формат видео: AVI
Видео: 704x400 (1.76:1), 24.000 fps, XviD build 73 ~1903 kbps avg, 0.28 bit/pixel
Аудио: 48 kHz, AC3 Dolby Digital, 3/2 (L,C,R,l,r) + LFE ch, ~448 kbps-[box]Сэмпл[/box]-

MediaInfo

Код:Формат : AVI
Формат/Информация : Audio Video Interleave
Размер файла : 1,46 Гбайт
Продолжительность : 1 ч. 28 м.
Общий поток : 2361 Кбит/сек
Название фильма : Питер Пэн - В поисках магической книги_2018_WEBRip
Программа кодирования : VirtualDubMod 1.5.10.3 | www.virtualdub-fr.org || (build 2550/release)
Авторское право : порошков
Видео
Идентификатор : 0
Формат : MPEG-4 Visual
Профиль формата : Advanced Simple@L5
Настройки формата : BVOP1 / Custom Matrix
Параметр BVOP формата : 1
Параметр QPel формата : Нет
Параметр GMC формата : Без точки перехода
Параметр матрицы формата : Выборочная
Идентификатор кодека : XVID
Идентификатор кодека/Подсказка : XviD
Продолжительность : 1 ч. 28 м.
Битрейт : 1903 Кбит/сек
Ширина : 704 пикселя
Высота : 400 пикселей
Соотношение сторон : 16:9
Частота кадров : 24,000 кадра/сек
Цветовое пространство : YUV
Субдискретизация насыщенности : 4:2:0
Битовая глубина : 8 бит
Тип развёртки : Прогрессивная
Метод сжатия : С потерями
Бит/(Пиксели*Кадры) : 0.282
Размер потока : 1,17 Гбайт (81%)
Библиотека кодирования : XviD 73
Аудио
Идентификатор : 1
Формат : AC-3
Формат/Информация : Audio Coding 3
Коммерческое название : Dolby Digital
Идентификатор кодека : 2000
Продолжительность : 1 ч. 28 м.
Вид битрейта : Постоянный
Битрейт : 448 Кбит/сек
Каналы : 6 каналов
ChannelLayout : L R C LFE Ls Rs
Частота : 48,0 КГц
Частота кадров : 31,250 кадров/сек (1536 SPF)
Битовая глубина : 16 бит
Метод сжатия : С потерями
Размер потока : 283 Мбайт (19%)
Выравнивание : Разделение по промежуткам
Продолжительность промежутка : 42 мс. (1,00 видеокадр)
Время предзагрузки промежутка : 500 мс.
ServiceKind/String : Complete Main

Скриншоты


[cybertorrent.net].t3131.torrent 
Торрент: Зарегистрирован [ 2019-05-26 17:05 ] · 0573101F09224140BC61FB65A5B66058034B6577

Скачать .torrent

Скачать

15 KB

Статус: проверено
Скачан: 0 раз
Размер: 1,46 GB
terms.php
Профиль ЛС
Показать сообщения:    

Текущее время: 14-Ноя 04:37

Часовой пояс: UTC ± 0



Вы не можете начинать темы
Вы не можете отвечать на сообщения
Вы не можете редактировать свои сообщения
Вы не можете удалять свои сообщения
Вы не можете голосовать в опросах
Вы не можете прикреплять файлы к сообщениям
Вы можете скачивать файлы