Статистика раздачи
Размер:  2,17 GB   |    Зарегистрирован:  6 месяцев 27 дней   |    Скачан:  0 раз

Полного источника не было: Никогда

   
 

Гость ®

Пол:
Не указан

Избави нас от лукавого
Deliver Us from Evil
Open MatteРусская локализация Страна: США
Жанр: ужасы
Год выпуска: 2014
Продолжительность: 01:46:54-Перевод: Профессиональный (дублированный)
Субтитры: нет
Оригинальная аудиодорожка: нет-Режиссер: Скотт Дерриксон / Scott Derrickson
В ролях: Эрик Бана, Шон Харрис, Эдгар Рамирес, Оливия Манн, Джоэл МакХэйл, Дориан Миссик, Шон Нельсон, Майк Хьюстон, Бен Ливингстон, Оливия Хортон, Скотт Джонсен, Дэниэл Саули, Антониетта ЛаВеккия, Дженна Гэвигэн, Марк Дэвид Уотсон, Кевин Нэгл-Описание: Полиция Нью-Йорка расследует серию тревожных и необъяснимых преступлений. Один из офицеров обращается за помощью к специалисту по экзорцизму, чтобы избавить город от дьявольской напасти-Доп. информация: Open Matte
Русская локализация
Сэмпл: 1минута57сек-Качество видео: DVB
Формат видео: MKV
Видео: AVC, 720х576@1044x576, 16:9, 25,000 кадров/сек, 2708 Кбит/сек
Аудио: MP2, 48,0 КГц, 192 Кбит/сек, 2 канала (дубляж)

MediaInfo

Общее
Уникальный идентификатор : 100498901206883875112928792780905727021 (0x4B9B6262E0606A84E6D33BD26B75442D)
Полное имя : Избави нас от лукавого.2014.mkv
Формат : Matroska
Версия формата : Version 4
Размер файла : 2,17 Гбайт
Продолжительность : 1 ч. 46 м.
Общий поток : 2902 Кбит/сек
Название фильма : Избави нас от лукавого / Deliver Us from Evil / 2014
Дата кодирования : UTC 2019-02-26 05:42:15
Программа кодирования : mkvmerge v31.0.0 ('Dolores In A Shoestand') 32-bit
Библиотека кодирования : libebml v1.3.6 + libmatroska v1.4.9 / Lavf54.63.104
Видео
Идентификатор : 1
Формат : AVC
Формат/Информация : Advanced Video Codec
Профиль формата : Main@L3
Настройки формата : CABAC / 3 Ref Frames
Параметр CABAC формата : Да
Параметр RefFrames формата : 3 кадра
Параметр GOP формата : M=4, N=28
Идентификатор кодека : V_MPEG4/ISO/AVC
Продолжительность : 1 ч. 46 м.
Битрейт : 2708 Кбит/сек
Ширина : 720 пикселей
Высота : 576 пикселей
Соотношение сторон : 16:9
Соотношение сторон в оригинале : 16:9
Режим частоты кадров : Постоянный
Частота кадров : 25,000 кадров/сек
Стандарт вещания : Component
Цветовое пространство : YUV
Субдискретизация насыщенности : 4:2:0
Битовая глубина : 8 бит
Тип развёртки : Чересстрочная
Метод сохранения типа развёртки : Раздельные поля
Порядок развёртки : Верхнее поле первое
Бит/(Пиксели*Кадры) : 0.261
Размер потока : 2,02 Гбайт (93%)
Заголовок : Избави нас от лукавого / Deliver Us from Evil / 2014
Язык : English
Default : Да
Forced : Нет
Цветовой диапазон : Limited
Основные цвета : BT.601 PAL
Характеристики трансфера : BT.470 System B/G
Коэффициенты матрицы : BT.470 System B/G
Аудио
Идентификатор : 2
Формат : MPEG Audio
Версия формата : Version 1
Профиль формата : Layer 2
Идентификатор кодека : A_MPEG/L2
Идентификатор кодека/Подсказка : MP2
Продолжительность : 1 ч. 46 м.
Вид битрейта : Постоянный
Битрейт : 192 Кбит/сек
Каналы : 2 канала
Частота : 48,0 КГц
Частота кадров : 41,667 кадра/сек (1152 SPF)
Метод сжатия : С потерями
Размер потока : 147 Мбайт (7%)
Заголовок : дубляж
Язык : Russian
Default : Да
Forced : Нет

Скриншот c названием фильма

Скриншоты



[cybertorrent.net].t313.torrent 
Торрент: Зарегистрирован [ 2019-03-18 10:04 ] · 7E16E0DD2EA6EDBED6EEEB0D638A113C53408F7B

Скачать .torrent

Скачать

11 KB

Статус: проверено
Скачан: 0 раз
Размер: 2,17 GB
terms.php
Показать сообщения:    

Текущее время: 15-Окт 05:57

Часовой пояс: UTC ± 0



Вы не можете начинать темы
Вы не можете отвечать на сообщения
Вы не можете редактировать свои сообщения
Вы не можете удалять свои сообщения
Вы не можете голосовать в опросах
Вы не можете прикреплять файлы к сообщениям
Вы можете скачивать файлы