Статистика раздачи
Размер:  743 MB   |    Зарегистрирован:  5 месяцев 23 дня   |    Скачан:  0 раз
Сидов:  20  [  0 KB/s  ]   Личеров:  1  [  0 KB/s  ]  
 
     
 
 

Гость ®

Пол:
Не указан

Рубеж мира / Rim of the World
Страна: США
Жанр: фантастика, боевик, комедия, приключения
Год выпуска: 2019
Продолжительность: 01:39:08
Перевод: Профессиональный (дублированный) Пифагор
Субтитры: нет
Режиссер: МакДжи / McG
В ролях: Линн Коллинс, Аннабет Гиш, Майкл Бич, Тони Кавалеро, Дин Джаггер III, Мия Чех, Джек Гор, Эндрю Бэчелор, Пьюнем Пэйтел, Андреа Сьюзен Буш...
Описание: Четверо подростков-неудачников поневоле становятся союзниками, когда их отдых в летнем лагере прерывает вторжение пришельцев. И теперь подростки должны объединиться, преодолеть свои страхи и неуверенность и действовать как одна команда для того, чтобы попытаться спасти мир.
Сэмпл: http://sendfile.su/1496301
Качество видео: WEB-DLRip
Формат видео: AVI
Видео: 640x320 (2.00:1), 23.976 fps, DivX Codec 4.x ~910 kbps avg, 0.19 bit/pixel
Аудио: 48 kHz, MPEG Layer 3, 2 ch, ~128.00 kbps avg

MediaInfo

Общее
Полное имя : D:\Rubej_mira_2019_WEB-DLRip_740_Один777.avi
Формат : AVI
Формат/Информация : Audio Video Interleave
Размер файла : 743 Мбайт
Продолжительность : 1 ч. 39 м.
Общий поток : 1048 Кбит/сек
Программа кодирования : VirtualDubMod 1.5.10.3 | www.virtualdub-fr.org || (build 2550/release)
Библиотека кодирования : VirtualDubMod build 2550/release
Видео
Идентификатор : 0
Формат : MPEG-4 Visual
Профиль формата : Advanced Simple@L5
Параметр BVOP формата : 1
Параметр QPel формата : Нет
Параметр GMC формата : Без точки перехода
Параметр матрицы формата : Default (MPEG)
Идентификатор кодека : DIVX
Идентификатор кодека/Информация : Project Mayo
Идентификатор кодека/Подсказка : DivX 4
Продолжительность : 1 ч. 39 м.
Битрейт : 911 Кбит/сек
Ширина : 640 пикселей
Высота : 320 пикселей
Соотношение сторон : 2,000
Частота кадров : 23,976 (23976/1000) кадра/сек
Цветовое пространство : YUV
Субдискретизация насыщенности : 4:2:0
Битовая глубина : 8 бит
Тип развёртки : Прогрессивная
Метод сжатия : С потерями
Бит/(Пиксели*Кадры) : 0.186
Размер потока : 646 Мбайт (87%)
Библиотека кодирования : XviD 1.2.1 (UTC 2008-12-04)
Аудио
Идентификатор : 1
Формат : MPEG Audio
Версия формата : Version 1
Профиль формата : Layer 3
Идентификатор кодека : 55
Идентификатор кодека/Подсказка : MP3
Продолжительность : 1 ч. 39 м.
Вид битрейта : Постоянный
Битрейт : 128 Кбит/сек
Каналы : 2 канала
Частота : 48,0 КГц
Метод сжатия : С потерями
Размер потока : 90,8 Мбайт (12%)
Выравнивание : Соединение по промежуткам
Продолжительность промежутка : 42 мс. (1,00 видеокадр)
Время предзагрузки промежутка : 504 мс.
Библиотека кодирования : LAME3.99r
Настройки программы : -m s -V 4 -q 2 -lowpass 17 -b 128

Скриншот c названием фильма

Скриншоты

[cybertorrent.net].t3121.torrent 
Торрент: Зарегистрирован [ 2019-05-25 16:38 ] · 4272B7D4E5551E77F579BAE425C21269CC7AC1C7

Скачать .torrent

Скачать

15 KB

Статус: проверено
Скачан: 0 раз
Размер: 743 MB
terms.php
Показать сообщения:    

Текущее время: 17-Ноя 18:02

Часовой пояс: UTC ± 0



Вы не можете начинать темы
Вы не можете отвечать на сообщения
Вы не можете редактировать свои сообщения
Вы не можете удалять свои сообщения
Вы не можете голосовать в опросах
Вы не можете прикреплять файлы к сообщениям
Вы можете скачивать файлы