Статистика раздачи
Размер:  1,37 GB   |    Зарегистрирован:  5 месяцев 21 день   |    Скачан:  0 раз

Полного источника не было: Никогда

 
     
 
 

karlll ®

Пол:
Не указан
Стаж:
8 месяцев 3 дня
Сообщений:
171

Джейк и гиганты / Jake and the Giants
Страна: США
Жанр: мультфильм
Год выпуска: 2015
Продолжительность: 01:18:28-Перевод: Профессиональный (многоголосый закадровый)
Субтитры: нет
Оригинальная аудиодорожка: нет-Режиссер: Кент Баттерворф / Kent Butterworth-В ролях: Ник Делия, Деби Дерриберри, Скотт Джефферс, Кэти Ли, Мона Маршалл, Кен Мэри, Марк Слотер, Лайла Стюарт, Марк Томпсон-Описание: 12-летний мальчик Джейк и его сестра-близнец Джоанна живут вместе с семьей в тихой деревеньке рядом со Средиземным морем. Ничто не предвещало беды, но однажды гиганты нападают на это уютное поселение и похищают родителей близнецов. Джейк готов на все, чтобы вернуть их. Он оставляет родной дом и отправляется на долгие и опасные поиски, чтобы воссоединить свою семью. На помощь ему вызываются мудрая Сова, прекрасный Альбаторос и пара хитрых бобров.- -Качество видео: WEBRip
Формат видео: AVI
Видео: 704x400 (1.76:1), 25 fps, XviD build 73 ~2294 kbps avg, 0.33 bit/pixel
Аудио: 48 kHz, AC3 Dolby Digital, 2/0 (L,R) ch, ~192 kbps-[box]Сэмпл[/box]-

MediaInfo

Код:Формат : AVI
Формат/Информация : Audio Video Interleave
Размер файла : 1,37 Гбайт
Продолжительность : 1 ч. 18 м.
Общий поток : 2496 Кбит/сек
Название фильма : Джейк и гиганты_2015_WEBRip
Программа кодирования : VirtualDubMod 1.5.10.3 | www.virtualdub-fr.org || (build 2550/release)
Авторское право : порошков
Видео
Идентификатор : 0
Формат : MPEG-4 Visual
Профиль формата : Advanced Simple@L5
Настройки формата : BVOP1 / Custom Matrix
Параметр BVOP формата : 1
Параметр QPel формата : Нет
Параметр GMC формата : Без точки перехода
Параметр матрицы формата : Выборочная
Идентификатор кодека : XVID
Идентификатор кодека/Подсказка : XviD
Продолжительность : 1 ч. 18 м.
Битрейт : 2294 Кбит/сек
Ширина : 704 пикселя
Высота : 400 пикселей
Соотношение сторон : 16:9
Частота кадров : 25,000 кадров/сек
Цветовое пространство : YUV
Субдискретизация насыщенности : 4:2:0
Битовая глубина : 8 бит
Тип развёртки : Прогрессивная
Метод сжатия : С потерями
Бит/(Пиксели*Кадры) : 0.326
Размер потока : 1,26 Гбайт (92%)
Библиотека кодирования : XviD 73
Аудио
Идентификатор : 1
Формат : AC-3
Формат/Информация : Audio Coding 3
Коммерческое название : Dolby Digital
Идентификатор кодека : 2000
Продолжительность : 1 ч. 18 м.
Вид битрейта : Постоянный
Битрейт : 192 Кбит/сек
Каналы : 2 канала
ChannelLayout : L R
Частота : 48,0 КГц
Частота кадров : 31,250 кадров/сек (1536 SPF)
Битовая глубина : 16 бит
Метод сжатия : С потерями
Размер потока : 108 Мбайт (8%)
Выравнивание : Разделение по промежуткам
Продолжительность промежутка : 40 мс. (1,00 видеокадр)
Время предзагрузки промежутка : 500 мс.
ServiceKind/String : Complete Main

Скриншоты


[cybertorrent.net].t3119.torrent 
Торрент: Зарегистрирован [ 2019-05-25 16:38 ] · 21D89BC614BFCEF43211FBDCBB5575791A1AD6B2

Скачать .torrent

Скачать

14 KB

Статус: проверено
Скачан: 0 раз
Размер: 1,37 GB
terms.php
Профиль ЛС
Показать сообщения:    

Текущее время: 15-Ноя 18:24

Часовой пояс: UTC ± 0



Вы не можете начинать темы
Вы не можете отвечать на сообщения
Вы не можете редактировать свои сообщения
Вы не можете удалять свои сообщения
Вы не можете голосовать в опросах
Вы не можете прикреплять файлы к сообщениям
Вы можете скачивать файлы