Статистика раздачи
Размер:  1,46 GB   |    Зарегистрирован:  5 месяцев 22 дня   |    Скачан:  0 раз

Полного источника не было: Никогда

 
     
 
 

Гость ®

Пол:
Не указан

Шелли снова в деле: Часть 1 / Wiener Dog Nationals
Страна: США
Жанр: комедия, семейный, спорт
Год выпуска: 2013
Продолжительность: 01:22:05-Перевод: Профессиональный (многоголосый закадровый)
Субтитры: нет
Оригинальная аудиодорожка: нет-Режиссер: Кеван Петерсон / Kevan Peterson-В ролях: Алисия Уитт, Джейсон Лондон, Морган Фэйрчайлд, Джулиан Федер, Брайан Бэтт, Кэйтлин Кармайкл, Остин Андерсон, Джим Метцлер, Марке Ричардсон II, Лаура Энн Кеслинг-Описание: Никогда еще в мире не собиралось в одном месте такого количества такс, как на чемпионате. Сюда прибыли владельцы со своими питомцами со всех уголков страны, в надежде не просто принять участие в соревнованиях, но и одержать в них победу. Конкуренция будет жесткой, ведь состязаются лучшие представители данной породы. Но наибольшее напряжение царит все же, среди владельцев собак, они-то волнуются гораздо больше самих участников чемпионата. С этим будет связано множество комичных ситуаций и необычных происшествий…- -Качество видео: WEBRip
Формат видео: AVI
Видео: 704x400 (1.76:1), 24.000 fps, XviD build 73 ~2080 kbps avg, 0.31 bit/pixel
Аудио: 48 kHz, AC3 Dolby Digital, 3/2 (L,C,R,l,r) + LFE ch, ~448 kbps-[box]Сэмпл[/box]-

MediaInfo

Код:Формат : AVI
Формат/Информация : Audio Video Interleave
Размер файла : 1,46 Гбайт
Продолжительность : 1 ч. 22 м.
Общий поток : 2538 Кбит/сек
Название фильма : Шелли снова в деле _Часть 1_2013_WEBRip
Программа кодирования : VirtualDubMod 1.5.10.3 | www.virtualdub-fr.org || (build 2550/release)
Библиотека кодирования : VirtualDubMod build 2550/release
Авторское право : порошков
Видео
Идентификатор : 0
Формат : MPEG-4 Visual
Профиль формата : Advanced Simple@L5
Настройки формата : BVOP1 / Custom Matrix
Параметр BVOP формата : 1
Параметр QPel формата : Нет
Параметр GMC формата : Без точки перехода
Параметр матрицы формата : Выборочная
Идентификатор кодека : XVID
Идентификатор кодека/Подсказка : XviD
Продолжительность : 1 ч. 22 м.
Битрейт : 2081 Кбит/сек
Ширина : 704 пикселя
Высота : 400 пикселей
Соотношение сторон : 16:9
Частота кадров : 24,000 кадра/сек
Цветовое пространство : YUV
Субдискретизация насыщенности : 4:2:0
Битовая глубина : 8 бит
Тип развёртки : Прогрессивная
Метод сжатия : С потерями
Бит/(Пиксели*Кадры) : 0.308
Размер потока : 1,19 Гбайт (82%)
Библиотека кодирования : XviD 73
Аудио
Идентификатор : 1
Формат : AC-3
Формат/Информация : Audio Coding 3
Коммерческое название : Dolby Digital
Идентификатор кодека : 2000
Продолжительность : 1 ч. 22 м.
Вид битрейта : Постоянный
Битрейт : 448 Кбит/сек
Каналы : 6 каналов
ChannelLayout : L R C LFE Ls Rs
Частота : 48,0 КГц
Частота кадров : 31,250 кадров/сек (1536 SPF)
Битовая глубина : 16 бит
Метод сжатия : С потерями
Размер потока : 263 Мбайт (18%)
Выравнивание : Разделение по промежуткам
Продолжительность промежутка : 42 мс. (1,00 видеокадр)
Время предзагрузки промежутка : 500 мс.
ServiceKind/String : Complete Main

Скриншоты


[cybertorrent.net].t3109.torrent 
Торрент: Зарегистрирован [ 2019-05-25 16:38 ] · 24559CAD40AD6210E49CDE7FC9C64B496388217A

Скачать .torrent

Скачать

15 KB

Статус: проверено
Скачан: 0 раз
Размер: 1,46 GB
terms.php
Показать сообщения:    

Текущее время: 17-Ноя 15:39

Часовой пояс: UTC ± 0



Вы не можете начинать темы
Вы не можете отвечать на сообщения
Вы не можете редактировать свои сообщения
Вы не можете удалять свои сообщения
Вы не можете голосовать в опросах
Вы не можете прикреплять файлы к сообщениям
Вы можете скачивать файлы