Статистика раздачи
Размер:  1,46 GB   |    Зарегистрирован:  5 месяцев 18 дней   |    Скачан:  0 раз
Сидов:  197  [  0 KB/s  ]   Личеров:  10  [  0 KB/s  ]  
 
     
 
 

Гость ®

Пол:
Не указан

Рубеж мира / Rim of the World
Страна: США
Жанр: фантастика, боевик, комедия, приключения
Год выпуска: 2019
Продолжительность: 01:38:00-Перевод: Профессиональный (дублированный) | Пифагор
Субтитры: русские (форс.)
Оригинальная аудиодорожка: нет-Режиссер:
МакДжи / McG-В ролях:
Линн Коллинс, Аннабет Гиш, Майкл Бич, Тони Кавалеро, Дин Джаггер III, Мия Чех, Джек Гор, Эндрю Бэчелор, Пьюнем Пэйтел, Андреа Сьюзен Буш-Описание:
Четверо подростков-неудачников поневоле становятся союзниками, когда их отдых в летнем лагере прерывает вторжение пришельцев. И теперь подростки должны объединиться, преодолеть свои страхи и неуверенность и действовать как одна команда для того, чтобы попытаться спасти мир.- -Качество видео: WEB-DLRip
Формат видео: AVI
Видео: 704x352 (2.00:1), 23.976 fps, XviD build 73 ~1715 kbps avg, 0.29 bit/pixel
Аудио: 48 kHz, AC3 Dolby Digital, 3/2 (L,C,R,l,r) + LFE ch, ~384 kbps-[box]Сэмпл[/box]-

MediaInfo

Код:Формат : AVI
Формат/Информация : Audio Video Interleave
Размер файла : 1,46 Гбайт
Продолжительность : 1 ч. 39 м.
Общий поток : 2109 Кбит/сек
Название фильма : Рубеж мира_2019_WEB-DLRip
Программа кодирования : VirtualDubMod 1.5.10.3 | www.virtualdub-fr.org || (build 2550/release)
Авторское право : порошков
Видео
Идентификатор : 0
Формат : MPEG-4 Visual
Профиль формата : Advanced Simple@L5
Настройки формата : BVOP1 / Custom Matrix
Параметр BVOP формата : 1
Параметр QPel формата : Нет
Параметр GMC формата : Без точки перехода
Параметр матрицы формата : Выборочная
Идентификатор кодека : XVID
Идентификатор кодека/Подсказка : XviD
Продолжительность : 1 ч. 39 м.
Битрейт : 1716 Кбит/сек
Ширина : 704 пикселя
Высота : 352 пикселя
Соотношение сторон : 2,000
Частота кадров : 23,976 (24000/1001) кадра/сек
Цветовое пространство : YUV
Субдискретизация насыщенности : 4:2:0
Битовая глубина : 8 бит
Тип развёртки : Прогрессивная
Метод сжатия : С потерями
Бит/(Пиксели*Кадры) : 0.289
Размер потока : 1,19 Гбайт (81%)
Библиотека кодирования : XviD 73
Аудио
Идентификатор : 1
Формат : AC-3
Формат/Информация : Audio Coding 3
Коммерческое название : Dolby Digital
Идентификатор кодека : 2000
Продолжительность : 1 ч. 39 м.
Вид битрейта : Постоянный
Битрейт : 384 Кбит/сек
Каналы : 6 каналов
ChannelLayout : L R C LFE Ls Rs
Частота : 48,0 КГц
Частота кадров : 31,250 кадров/сек (1536 SPF)
Битовая глубина : 16 бит
Метод сжатия : С потерями
Размер потока : 272 Мбайт (18%)
Выравнивание : Разделение по промежуткам
Продолжительность промежутка : 42 мс. (1,00 видеокадр)
Время предзагрузки промежутка : 500 мс.
ServiceKind/String : Complete Main

Скриншоты


[cybertorrent.net].t3100.torrent 
Торрент: Зарегистрирован [ 2019-05-25 16:38 ] · A746F1F7F727723798AF83027D1783F7B05E35BB

Скачать .torrent

Скачать

15 KB

Статус: проверено
Скачан: 0 раз
Размер: 1,46 GB
terms.php
Показать сообщения:    

Текущее время: 13-Ноя 00:06

Часовой пояс: UTC ± 0



Вы не можете начинать темы
Вы не можете отвечать на сообщения
Вы не можете редактировать свои сообщения
Вы не можете удалять свои сообщения
Вы не можете голосовать в опросах
Вы не можете прикреплять файлы к сообщениям
Вы можете скачивать файлы