Статистика раздачи
Размер:  1,46 GB   |    Зарегистрирован:  6 месяцев 27 дней   |    Скачан:  0 раз
DL-List: Нет

Полного источника не было: Никогда

   
 

Гость ®

Пол:
Не указан

Близко / Close- Год выхода: 2019
Страна: Великобритания, США
Жанр: боевик, триллер
Продолжительность: 01:34:38
Перевод: Любительский (многоголосый закадровый) HDRezka Studio
Субтитры: нет
Оригинальная аудиодорожка: Английская-Режиссер:
Вики Джуисон / Vicky Jewson-В ролях:
Нуми Рапас, Индира Варма, Софи Нелисс, Оуэн Мэкен, Чарли Палмер Ротуэлл, Акин Гази, Хув Парментер, Джордж Джорджиу, Кристофер Сиуреф, Оливия Джуисон-О фильме:
Сюжет повествует об эксперте по безопасности Сэм, которую нанимает богатая семья, чтобы она защитила Зои, избалованную наследницу их бизнес-империи. Вскоре на девушку открывают настоящую охоту, и Сэм остается ее единственным шансом на выживание.-Релиз групп | | IMDB | КиноПоиск | Сэмпл |-Качество: WEB-DLRip
Формат: AVI
Видео: 720x304 (2.37:1), 24.000 fps, XviD build 67 ~1808 kbps avg, 0.34 bit/pixel
Аудио #1: 48 kHz, AC3 Dolby Digital, 2/0 (L,R) ch, ~192 kbps avg (RUS)
Аудио #2: 48 kHz, AC3 Dolby Digital, 2/0 (L,R) ch, ~192 kbps avg (ENG)-

Скриншоты

-

MediaInfo

Код:Полное имя : D:\Blizko_2019_WEB-DLRip_MVO_by_Dalemake.avi
Формат : AVI
Формат/Информация : Audio Video Interleave
Размер файла : 1,46 Гбайт
Продолжительность : 1 ч. 34 м.
Общий поток : 2207 Кбит/сек
Программа кодирования : VirtualDubMod 1.5.10.3 | www.virtualdub-fr.org || (build 2550/release)
Библиотека кодирования : VirtualDubMod build 2550/release
Видео
Идентификатор : 0
Формат : MPEG-4 Visual
Профиль формата : Advanced Simple@L5
Параметр BVOP формата : 1
Параметр QPel формата : Нет
Параметр GMC формата : Без точки перехода
Параметр матрицы формата : Выборочная
Идентификатор кодека : XVID
Идентификатор кодека/Подсказка : XviD
Продолжительность : 1 ч. 34 м.
Битрейт : 1809 Кбит/сек
Ширина : 720 пикселей
Высота : 304 пикселя
Соотношение сторон : 2,35:1
Частота кадров : 24,000 кадра/сек
Цветовое пространство : YUV
Субдискретизация насыщенности : 4:2:0
Битовая глубина : 8 бит
Тип развёртки : Прогрессивная
Метод сжатия : С потерями
Бит/(Пиксели*Кадры) : 0.344
Размер потока : 1,20 Гбайт (82%)
Библиотека кодирования : XviD 67
Аудио #1
Идентификатор : 1
Формат : AC-3
Формат/Информация : Audio Coding 3
Расширение режима : CM (complete main)
Параметр Endianness формата : Big
Идентификатор кодека : 2000
Продолжительность : 1 ч. 34 м.
Вид битрейта : Постоянный
Битрейт : 192 Кбит/сек
Каналы : 2 канала
Расположение каналов : Front: L R
Частота : 48,0 КГц
Метод сжатия : С потерями
Размер потока : 130 Мбайт (9%)
Выравнивание : Разделение по промежуткам
Продолжительность промежутка : 42 мс. (1,00 видеокадр)
Время предзагрузки промежутка : 500 мс.
Аудио #2
Идентификатор : 2
Формат : AC-3
Формат/Информация : Audio Coding 3
Расширение режима : CM (complete main)
Параметр Endianness формата : Big
Идентификатор кодека : 2000
Продолжительность : 1 ч. 34 м.
Вид битрейта : Постоянный
Битрейт : 192 Кбит/сек
Каналы : 2 канала
Расположение каналов : Front: L R
Частота : 48,0 КГц
Метод сжатия : С потерями
Размер потока : 130 Мбайт (9%)
Выравнивание : Разделение по промежуткам
Продолжительность промежутка : 42 мс. (1,00 видеокадр)
Время предзагрузки промежутка : 500 мс.
-При появлении проф. перевода рип будет перезалит!-
[cybertorrent.net].t310.torrent 
Торрент: Зарегистрирован [ 2019-03-18 10:04 ] · F3EC9AA362255D1E95625B50D921FB8B6D98A031

Скачать .torrent

Скачать

15 KB

Статус: проверено
Скачан: 0 раз
Размер: 1,46 GB
terms.php
Показать сообщения:    

Текущее время: 15-Окт 08:23

Часовой пояс: UTC ± 0



Вы не можете начинать темы
Вы не можете отвечать на сообщения
Вы не можете редактировать свои сообщения
Вы не можете удалять свои сообщения
Вы не можете голосовать в опросах
Вы не можете прикреплять файлы к сообщениям
Вы можете скачивать файлы