Статистика раздачи
Размер:  1,46 GB   |    Зарегистрирован:  5 месяцев 23 дня   |    Скачан:  0 раз

Полного источника не было: Никогда

 
     
 
 

Гость ®

Пол:
Не указан

В метре друг от друга / Five Feet Apart- Год выхода: 2019
Страна: США
Жанр: драма, мелодрама
Продолжительность: 01:56:13
Перевод: Любительский (многоголосый закадровый) KerobTV
Субтитры: нет-Режиссер:
Джастин Бальдони / Justin Baldoni-В ролях:
Хейли Лу Ричардсон, Коул Спроус, Мойзес Ариас, Кимберли Хеберт Грегори, Парминдер К. Награ, Клер Форлани, Эмили Бальдони, Гари Викс, Синтия Эванс, Бретт Остин Джонсон-О фильме:
Пространство, в котором они существуют, диктует жестокое условие — влюбленные должны находиться не ближе метра друг от друга, им недоступно даже прикосновение. Но истинная любовь не знает границ, и чем сильнее чувства, тем больше соблазн нарушить правила…-Релиз групп | | IMDB | КиноПоиск | Сэмпл |-Качество: WEB-DLRip
Формат: AVI
Видео: 704x288 (2.44:1), 23.976 fps, XviD build 67 ~1402 kbps avg, 0.29 bit/pixel
Аудио: 48 kHz, AC3 Dolby Digital, 3/2 (L,C,R,l,r) + LFE ch, ~384 kbps avg-

Скриншоты

-

MediaInfo

Код:Полное имя : D:\V_metre_drug_ot_druga_2019_WEB-DLRip_MVO_by_Dalemake.avi
Формат : AVI
Формат/Информация : Audio Video Interleave
Размер файла : 1,46 Гбайт
Продолжительность : 1 ч. 56 м.
Общий поток : 1796 Кбит/сек
Программа кодирования : VirtualDubMod 1.5.10.3 | www.virtualdub-fr.org || (build 2550/release)
Библиотека кодирования : VirtualDubMod build 2550/release
Видео
Идентификатор : 0
Формат : MPEG-4 Visual
Профиль формата : Advanced Simple@L5
Параметр BVOP формата : 1
Параметр QPel формата : Нет
Параметр GMC формата : Без точки перехода
Параметр матрицы формата : Выборочная
Идентификатор кодека : XVID
Идентификатор кодека/Подсказка : XviD
Продолжительность : 1 ч. 56 м.
Битрейт : 1403 Кбит/сек
Ширина : 704 пикселя
Высота : 288 пикселей
Соотношение сторон : 2,40:1
Частота кадров : 23,976 кадра/сек
Цветовое пространство : YUV
Субдискретизация насыщенности : 4:2:0
Битовая глубина : 8 бит
Тип развёртки : Прогрессивная
Метод сжатия : С потерями
Бит/(Пиксели*Кадры) : 0.289
Размер потока : 1,14 Гбайт (78%)
Библиотека кодирования : XviD 67
Аудио
Идентификатор : 1
Формат : AC-3
Формат/Информация : Audio Coding 3
Расширение режима : CM (complete main)
Параметр Endianness формата : Big
Идентификатор кодека : 2000
Продолжительность : 1 ч. 56 м.
Вид битрейта : Постоянный
Битрейт : 384 Кбит/сек
Каналы : 6 каналов
Расположение каналов : Front: L C R, Side: L R, LFE
Частота : 48,0 КГц
Метод сжатия : С потерями
Задержка видео : 22 мс.
Размер потока : 319 Мбайт (21%)
Выравнивание : Разделение по промежуткам
Продолжительность промежутка : 42 мс. (1,00 видеокадр)
Время предзагрузки промежутка : 500 мс.
-При появлении проф. перевода рип будет перезалит!-
[cybertorrent.net].t3090.torrent 
Торрент: Зарегистрирован [ 2019-05-24 16:14 ] · 4ABD20FE6DB2B52EEC0D5525DBE32B301D4A3D3E

Скачать .torrent

Скачать

15 KB

Статус: проверено
Скачан: 0 раз
Размер: 1,46 GB
terms.php
Показать сообщения:    

Текущее время: 17-Ноя 05:35

Часовой пояс: UTC ± 0



Вы не можете начинать темы
Вы не можете отвечать на сообщения
Вы не можете редактировать свои сообщения
Вы не можете удалять свои сообщения
Вы не можете голосовать в опросах
Вы не можете прикреплять файлы к сообщениям
Вы можете скачивать файлы