Статистика раздачи
Размер:  733 MB   |    Зарегистрирован:  5 месяцев 29 дней   |    Скачан:  0 раз
Сидов:  4  [  0 KB/s  ]  
 
     
 
 

солнышко ®

Пол:
Не указан
Стаж:
8 месяцев 10 дней
Сообщений:
565

Чёртов красавчик / Handsome Devil
Страна: Ирландия
Год выпуска: 2016
Жанр: драма, комедия, спорт, гей-тема
Продолжительность: 01:34:38
Перевод: Любительский (многоголосый закадровый) - Колобок
Субтитры: нет
Оригинальная аудиодорожка: английский
Режиссёр: Джон Батлер / John Butler
В ролях: Фионн О’Ши (Нед), Николас Голицын (Конор), Майкл МакЭлхаттон, Эндрю Скотт, Мо Данфорд, Джей Даффи, Рори О’Коннор, Норма Шихан, Стефен Хоган, Ардал О’Хэнлон, Эми Хубермэн, Марк Лэйвери
Описание: Нед и Конор вынуждены делить комнату в школе-интернате для мальчиков. Нед - тихий одиночка, книжный червь, презираемый одноклассниками, к тому же рыжий. Новичок Коннор - спортсмен, звезда команды по регби, чертовски хорош собой, но часто меняет колледжи, драчун, забаррикадировавшийся изнутри подросток, не пускающий никого внутрь. По сути, оба страдают от одиночества и непонимания, обоих состоятельные родители спихнули в этот интернат. Постепенно между парнями устанавливается доверие. Их дружба вызывает серьёзные последствия, нарушая внутреннее равновесие и консервативный уклад в коллективе среди учеников и учителей.
Сэмпл: https://www.sendspace.com/file/lg0uyp
Качество видео: WEB-DLRip
Формат видео: AVI
Видео: XviD; 720 x 304 (2,35:1); 24 кадров/сек; 820 Кбит/сек
Аудио 1: MP3; 48 КГц; 128 Кбит/сек; 2 канала; MVO (Русский, Колобок)
Аудио 2: MP3; 48 КГц; 128 Кбит/сек; 2 канала; Оригинал (Английский)

MediaInfo

Общее
Формат : AVI
Формат/Информация : Audio Video Interleave
Размер файла : 733 Мбайт
Продолжительность : 1 ч. 34 м.
Общий поток : 1083 Кбит/сек
Видео
Идентификатор : 0
Формат : MPEG-4 Visual
Профиль формата : Advanced Simple@L5
Настройки формата : BVOP2
Параметр BVOP формата : 2
Параметр QPel формата : Нет
Параметр GMC формата : Без точки перехода
Параметр матрицы формата : Default (H.263)
Идентификатор кодека : XVID
Идентификатор кодека/Подсказка : XviD
Продолжительность : 1 ч. 34 м.
Битрейт : 820 Кбит/сек
Ширина : 720 пикселей
Высота : 304 пикселя
Соотношение сторон : 2,35:1
Частота кадров : 24,000 кадра/сек
Цветовое пространство : YUV
Субдискретизация насыщенности : 4:2:0
Битовая глубина : 8 бит
Тип развёртки : Прогрессивная
Метод сжатия : С потерями
Бит/(Пиксели*Кадры) : 0.156
Размер потока : 555 Мбайт (76%)
Библиотека кодирования : XviD 67
Аудио #1
Идентификатор : 1
Формат : MPEG Audio
Версия формата : Version 1
Профиль формата : Layer 3
Настройки формата : Joint stereo / MS Stereo
Идентификатор кодека : 55
Идентификатор кодека/Подсказка : MP3
Продолжительность : 1 ч. 34 м.
Вид битрейта : Постоянный
Битрейт : 128 Кбит/сек
Каналы : 2 канала
Частота : 48,0 КГц
Частота кадров : 41,667 кадра/сек (1152 SPF)
Метод сжатия : С потерями
Размер потока : 86,6 Мбайт (12%)
Выравнивание : Соединение по промежуткам
Продолжительность промежутка : 167 мс. (4,00 видеокадра)
Время предзагрузки промежутка : 216 мс.
Заголовок : Колобок
Библиотека кодирования : LAME3.100
Настройки программы : -m j -V 4 -q 2 -lowpass 17 -b 128
Аудио #2
Идентификатор : 2
Формат : MPEG Audio
Версия формата : Version 1
Профиль формата : Layer 3
Настройки формата : Joint stereo / MS Stereo
Идентификатор кодека : 55
Идентификатор кодека/Подсказка : MP3
Продолжительность : 1 ч. 34 м.
Вид битрейта : Постоянный
Битрейт : 128 Кбит/сек
Каналы : 2 канала
Частота : 48,0 КГц
Частота кадров : 41,667 кадра/сек (1152 SPF)
Метод сжатия : С потерями
Размер потока : 86,6 Мбайт (12%)
Выравнивание : Соединение по промежуткам
Продолжительность промежутка : 167 мс. (4,00 видеокадра)
Время предзагрузки промежутка : 216 мс.
Заголовок : English
Библиотека кодирования : LAME3.100
Настройки программы : -m j -V 4 -q 2 -lowpass 17 -b 128

Скриншот c названием фильма

Если у кого есть желание ознакомиться с другими художественными и документальными фильмами , сериалами , мультфильмами и аниме, передачами по ЛГБТ-тематике , то на Рутрекере есть тема ЛГБТ в кинематографе .
[cybertorrent.net].t3085.torrent 
Торрент: Зарегистрирован [ 2019-05-24 16:14 ] · C37730CC79EAD84105B2CDCE0AB43CC92A44618C

Скачать .torrent

Скачать

15 KB

Статус: проверено
Скачан: 0 раз
Размер: 733 MB
terms.php
Профиль [ЛС]
Показать сообщения:    

Текущее время: 23-Ноя 02:15

Часовой пояс: UTC ± 0



Вы не можете начинать темы
Вы не можете отвечать на сообщения
Вы не можете редактировать свои сообщения
Вы не можете удалять свои сообщения
Вы не можете голосовать в опросах
Вы не можете прикреплять файлы к сообщениям
Вы можете скачивать файлы