Статистика раздачи
Размер:  1,46 GB   |    Зарегистрирован:  6 месяцев 11 дней   |    Скачан:  0 раз

Полного источника не было: Никогда

 
     
 
 

serzh ®

Пол:
Не указан
Стаж:
8 месяцев 24 дня
Сообщений:
384

Уж лучше умереть / Лучше умереть / Better Off Dead...
«Insanity doesn't run in the family, it gallops»
Страна: США
Жанр: Комедия
Год выпуска: 1985
Продолжительность: 01:36:57
Перевод: Авторский (одноголосый закадровый) Василий Горчаков
Субтитры: нет
Оригинальная аудиодорожка: английский
Режиссер: Сэвидж Стив Холланд / Savage Steve Holland
В ролях: Джон Кьюсак, Дэвид Огден Стайерз, Ким Дарби, Дэмиен Слэйд, Скутер Стивенс, Дайан
Франклин, Лора Уотербери, Дэн Шнайдер, Юдзи Окумото, Брайан Имада
Описание: От героя картины по имени Лэйн — ушла девушка. Ушла хладнокровно, без
сантиментов, заявив на прощание, что ей по вкусу кто-нибудь посимпатичней, побогаче и
попопулярней. Сказала…и ушла с капитаном школьной команды лыжников, разбив сердце
бедолаге Лэйну, существование которого сразу перестало иметь всякий смысл!
Доп. информация: Дорожка с В. Горчаковым синхронизирована и наложена ale_x2008 при помощи Adobe Audition, Sony Vegas и VirtualDubMod.
За оцифрованную с VHS дорожку благодарим - Glowamy

Релиз
Сэмпл: https://yadi.sk/i/I6lf1PyMOnCj1g
Качество видео: BDRip
Формат видео: AVI
Видео: XviD build 46, 720x400 (1.80:1), 23.976 fps, 1566 kbps avg, 0.23 bit/pixel
Аудио: AC3 Dolby Digital, 48000Hz 2/0 (L,R) ch (mono), 192 kbps avg
Аудио 2: 48 kHz, AC3 Dolby Digital, 3/2 (L,C,R,l,r) + LFE ch, ~384 kbps ENG

MediaInfo

Уж лучше умереть - Better Off Dead... (by ale_x2008).avi
Format : AVI
Format/Info : Audio Video Interleave
File size : 1.46 GiB
Duration : 1 h 36 min
Overall bit rate : 2 157 kb/s
Movie name : Уж лучше умереть
Director : by ale_X2008
Writing application : VirtualDubMod 1.5.10.2 (build 2540/release)
Copyright : Edich2
Comment : RuTracker.org
Video
ID : 0
Format : MPEG-4 Visual
Format profile : Advanced Simple@L5
Format settings : BVOP1 / Custom Matrix
Format settings, BVOP : 1
Format settings, QPel : No
Format settings, GMC : No warppoints
Format settings, Matrix : Custom
Codec ID : XVID
Codec ID/Hint : XviD
Duration : 1 h 36 min
Bit rate : 1 567 kb/s
Width : 720 pixels
Height : 400 pixels
Display aspect ratio : 16:9
Frame rate : 23.976 (24000/1001) FPS
Color space : YUV
Chroma subsampling : 4:2:0
Bit depth : 8 bits
Scan type : Progressive
Compression mode : Lossy
Bits/(Pixel*Frame) : 0.227
Stream size : 1.06 GiB (73%)
Writing library : XviD 1.1.2 (UTC 2006-11-01)
Audio #1
ID : 1
Format : AC-3
Format/Info : Audio Coding 3
Codec ID : 2000
Duration : 1 h 36 min
Bit rate mode : Constant
Bit rate : 192 kb/s
Channel(s) : 2 channels
Channel positions : Front: L R
Sampling rate : 48.0 kHz
Frame rate : 31.250 FPS (1536 SPF)
Bit depth : 16 bits
Compression mode : Lossy
Stream size : 133 MiB (9%)
Alignment : Split accross interleaves
Interleave, duration : 42 ms (1.00 video frame)
Interleave, preload duratio : 500 ms
Service kind : Complete Main
Audio #2
ID : 2
Format : AC-3
Format/Info : Audio Coding 3
Codec ID : 2000
Duration : 1 h 36 min
Bit rate mode : Constant
Bit rate : 384 kb/s
Channel(s) : 6 channels
Channel positions : Front: L C R, Side: L R, LFE
Sampling rate : 48.0 kHz
Frame rate : 31.250 FPS (1536 SPF)
Bit depth : 16 bits
Compression mode : Lossy
Stream size : 266 MiB (18%)
Alignment : Split accross interleaves
Interleave, duration : 42 ms (1.00 video frame)
Interleave, preload duratio : 500 ms
Service kind : Complete Main

Скриншоты



[cybertorrent.net].t3081.torrent 
Торрент: Зарегистрирован [ 2019-05-24 16:14 ] · 5D78C88409111943D9935F8D208253E7C5F0913A

Скачать .torrent

Скачать

15 KB

Статус: проверено
Скачан: 0 раз
Размер: 1,46 GB
terms.php
Профиль [ЛС]
Показать сообщения:    

Текущее время: 05-Дек 15:56

Часовой пояс: UTC ± 0



Вы не можете начинать темы
Вы не можете отвечать на сообщения
Вы не можете редактировать свои сообщения
Вы не можете удалять свои сообщения
Вы не можете голосовать в опросах
Вы не можете прикреплять файлы к сообщениям
Вы можете скачивать файлы