Статистика раздачи
Размер:  1,46 GB   |    Зарегистрирован:  5 месяцев 19 дней   |    Скачан:  0 раз

Полного источника не было: Никогда

 
     
 
 

serzh ®

Пол:
Не указан
Стаж:
8 месяцев 1 день
Сообщений:
384

Алмазы инспектора Клюта / Дамочка при бриллиантах / Lady Ice / I diamanti dell'ispettore Klute
Жанр: Триллер, криминал, драма
Страна: США
Студия: Tomorrow Entertainment
Год выпуска: 1973
Продолжительность: 01:31:15
Перевод: Одноголосый закадровый
Субтитры: русские (форсированные, только на 5 неозвученных фраз)
Субтитры: английские
Оригинальная аудиодорожка: английский
Режиссер: Том Грайз / Tom Gries
В ролях:
Дональд Сазерленд / Donald Sutherland ... Andy Hammon
Дженнифер О’Нил / Jennifer O'Neill ... Paula Booth
Роберт Дювалл / Robert Duvall ... Ford Pierce
Патрик Мэги / Patrick Magee ... Paul Booth
Джон Сайфер / Jon Cypher ... Eddie Stell
Эрик Браден / Eric Braeden ... Peter Brinker
Баффи Ди / Buffy Dee ... Tony Lacava
Перри Лопес / Perry Lopez ... Carlos
Чарльз Дж. Свепенизер / Charles J. Swepeniser ... Robber #1
Эдвард Бьякванти / Edward Biagianti ... Robber #2
Зви Скулер / Zvee Scooler ... Jeweler
Сол Фридер / Sol Frieder ... Jeweler
Беренайс Клэйр / Berenice Clayre ... Head Matron
Описание: Страховой агент ухаживает за богатой молодой красоткой, но вскоре начинает подозревать, что, возможно, ее драгоценности — краденые…
Дополнительная информация:
Релиз:
Исходник найден в сети.
Автор рипа: pmv
Большое спасибо за:
- русскую звуковую аудиодорожку - karlll
- синхронизацию аудиодорожки с советским дубляжем - pmv
* Просим извинить за плохое качество звука (на уровне исходника), которое произошло на стадии озвучивания. Озвучка, взята со старой раздачи - https://cybertorrent.ru/viewtopic.php?t=5441334 (оцифровка VHS) и наложена на дорожку с итальянским дубляжом (фильм на оригинальном английском). К тому же озвучка местами неразборчивая, сбивчивая, не совсем точная по смыслу. Однако, за неимением другой говорим спасибо авторам перевода и озвучивания фильма.
IMDb = 4,8/10 (278) - https://www.imdb.com/title/tt0070284/
Кинопоиск = - (20) - https://www.kinopoisk.ru/film/6269/
ВНИМАНИЕ!!! РИП ФОРМАТА mkv (кодек H.264) ВОСПРОИЗВОДИТСЯ НЕ НА ВСЕХ БЫТОВЫХ ВИДЕОПЛЕЕРАХ!!!
ПРОСЬБА к СКАЧАВШИМ. НЕ УХОДИТЕ С РАЗДАЧИ, ПОМОГИТЕ ДРУГИМ СКАЧАТЬ!!!
Качество видео: HDRip-AVC
Формат видео: MKV
Видео: AVC (H264), 1152x488 (2.35:1), 23.976 fps, 1900 kb/s, 0.141 Bits/Pixel
Аудио #1: AC3, 48.0 KHz, stereo (2 ch), 192 kbps – русский
Аудио #2: AC3, 48.0 KHz, stereo (2 ch), 192 kbps – английский

MediaInfo

General
Unique ID : 251692498298548347863122688786414514072 (0xBD5A3640B8DB19248744249E5D252F98)
Complete name : D:\torrents\Lady Ice (1973, rus_VO+sub_eng+eng).mkv
Format : Matroska
Format version : Version 4 / Version 2
File size : 1.46 GiB
Duration : 1 h 31 min
Overall bit rate : 2 287 kb/s
Encoded date : UTC 2019-05-23 14:18:33
Writing application : mkvmerge v6.7.0 ('Back to the Ground') 32bit built on Jan 8 2014 15:03:17
Writing library : libebml v1.3.0 + libmatroska v1.4.1
Video
ID : 1
Format : AVC
Format/Info : Advanced Video Codec
Format profile : High@L4.1
Format settings, CABAC : Yes
Format settings, RefFrames : 14 frames
Codec ID : V_MPEG4/ISO/AVC
Duration : 1 h 31 min
Bit rate : 1 900 kb/s
Width : 1 152 pixels
Height : 488 pixels
Display aspect ratio : 2.35:1
Frame rate mode : Constant
Frame rate : 23.976 (24000/1001) FPS
Original frame rate : 23.976 (23976/1000) FPS
Color space : YUV
Chroma subsampling : 4:2:0
Bit depth : 8 bits
Scan type : Progressive
Bits/(Pixel*Frame) : 0.141
Stream size : 1.18 GiB (81%)
Writing library : x264 core 146 r2538 121396c
Encoding settings : cabac=1 / ref=14 / deblock=1:0:0 / analyse=0x3:0x133 / me=umh / subme=10 / psy=1 / psy_rd=1.00:0.00 / mixed_ref=1 / me_range=24 / chroma_me=1 / trellis=2 / 8x8dct=1 / cqm=0 / deadzone=21,11 / fast_pskip=1 / chroma_qp_offset=-2 / threads=48 / lookahead_threads=3 / sliced_threads=0 / nr=0 / decimate=1 / interlaced=0 / bluray_compat=0 / constrained_intra=0 / bframes=8 / b_pyramid=2 / b_adapt=2 / b_bias=0 / direct=3 / weightb=1 / open_gop=0 / weightp=2 / keyint=250 / keyint_min=23 / scenecut=40 / intra_refresh=0 / rc_lookahead=60 / rc=2pass / mbtree=1 / bitrate=1900 / ratetol=1.0 / qcomp=0.60 / qpmin=0 / qpmax=69 / qpstep=4 / cplxblur=20.0 / qblur=0.5 / ip_ratio=1.40 / aq=1:1.00
Language : English
Default : Yes
Forced : No
Statistics Tags Issue : mkvmerge v33.1.0 ('Primrose') 64-bit 2019-05-10 15:16:31 / mkvmerge v6.7.0 ('Back to the Ground') 32bit built on Jan 8 2014 15:03:17 2019-05-23 14:18:33
FromStats_BitRate : 1900635
FromStats_Duration : 01:31:15.476000000
FromStats_FrameCount : 131280
FromStats_StreamSize : 1300860474
Audio #1
ID : 2
Format : AC-3
Format/Info : Audio Coding 3
Format settings, Endianness : Big
Codec ID : A_AC3
Duration : 1 h 31 min
Bit rate mode : Constant
Bit rate : 192 kb/s
Channel(s) : 2 channels
Channel positions : Front: L R
Sampling rate : 48.0 kHz
Frame rate : 31.250 FPS (1536 SPF)
Bit depth : 16 bits
Compression mode : Lossy
Delay relative to video : 28 ms
Stream size : 125 MiB (8%)
Language : Russian
Service kind : Complete Main
Default : Yes
Forced : No
Statistics Tags Issue : mkvmerge v33.1.0 ('Primrose') 64-bit 2019-05-10 15:16:31 / mkvmerge v6.7.0 ('Back to the Ground') 32bit built on Jan 8 2014 15:03:17 2019-05-23 14:18:33
FromStats_BitRate : 192000
FromStats_Duration : 01:31:15.424000000
FromStats_FrameCount : 171107
FromStats_StreamSize : 131410176
Audio #2
ID : 3
Format : AC-3
Format/Info : Audio Coding 3
Format settings, Endianness : Big
Codec ID : A_AC3
Duration : 1 h 31 min
Bit rate mode : Constant
Bit rate : 192 kb/s
Channel(s) : 2 channels
Channel positions : Front: L R
Sampling rate : 48.0 kHz
Frame rate : 31.250 FPS (1536 SPF)
Bit depth : 16 bits
Compression mode : Lossy
Stream size : 125 MiB (8%)
Language : English
Service kind : Complete Main
Default : No
Forced : No
Statistics Tags Issue : mkvmerge v33.1.0 ('Primrose') 64-bit 2019-05-10 15:16:31 / mkvmerge v6.7.0 ('Back to the Ground') 32bit built on Jan 8 2014 15:03:17 2019-05-23 14:18:33
FromStats_BitRate : 192000
FromStats_Duration : 01:31:15.296000000
FromStats_FrameCount : 171103
FromStats_StreamSize : 131407104
Text #1
ID : 4
Format : UTF-8
Codec ID : S_TEXT/UTF8
Codec ID/Info : UTF-8 Plain Text
Language : Russian
Default : Yes
Forced : Yes
Text #2
ID : 5
Format : UTF-8
Codec ID : S_TEXT/UTF8
Codec ID/Info : UTF-8 Plain Text
Language : English
Default : No
Forced : No

Скриншот c названием фильма

МОИ РАЗДАЧИ НА РУТРЕКЕРЕ: https://cybertorrent.ru/tracker.php?rid=27390064
[cybertorrent.net].t3080.torrent 
Торрент: Зарегистрирован [ 2019-05-24 16:14 ] · 7C8FC7BB3FD8A3ACB3D47FF3E6ACBA7FAD9276C8

Скачать .torrent

Скачать

15 KB

Статус: проверено
Скачан: 0 раз
Размер: 1,46 GB
terms.php
Профиль ЛС
Показать сообщения:    

Текущее время: 13-Ноя 15:05

Часовой пояс: UTC ± 0



Вы не можете начинать темы
Вы не можете отвечать на сообщения
Вы не можете редактировать свои сообщения
Вы не можете удалять свои сообщения
Вы не можете голосовать в опросах
Вы не можете прикреплять файлы к сообщениям
Вы можете скачивать файлы