Статистика раздачи
Размер:  1 GB   |    Зарегистрирован:  5 месяцев 21 день   |    Скачан:  0 раз
Сидов:  1  [  0 KB/s  ]  
 
     
 
 

Гость ®

Пол:
Не указан

КРОВЬ и СОКРОВИЩАBlood & Treasure- Год выпуска: 2019
Страна: США
Жанр: Боевик, приключения
Продолжительность:~ 00:42:00
Перевод: Профессиональный (многоголосый закадровый) Студия «Profix Media»-Режиссёр: Гай Норман Би, Холли Дэйл, Элрик Райли
В ролях: Мэтт Барр, София Пернас, Одед Фер, Майкл Джеймс Шоу, Катя Винтер, Джеймс Кэллис, Алисия Коппола, Марк Джальярди, Джон Ларрокетт-Описание: В центре приключенческого боевика — блестящий знаток древностей и опытный вор, специализирующийся на кражах произведений искусства. Вдвоём им предстоит отправиться в кругосветное путешествие по следу опаснейшего террориста, который развернул свою преступную деятельность благодаря украденным сокровищам. Преследуя убийцу, «напарники» неожиданно для самих себя оказываются в центре древней битвы за человеческую цивилизацию.-Доп. информация: Без рекламных ВидеоАудио вставок-Всем нетерпеливым, канал на отдачу маленький.
Ныть где сид, поддайте скорости не нужно. Не нравится - идите мимо, найдите Альтернативные раздачи, без негативных комментариев здесь.
-Альтернативные раздачи
Сэмпл-Качество: WEBRip
Формат: AVI
Видео: XviD, 720x400 (16:9), 23,976 fps, ~1500 kbps
Аудио Rus.: MP3, 48 kHz, 2 ch, 128 kbps
Аудио Eng.: MP3, 48 kHz, 2 ch, 128 kbps
Субтитры: отсутствуют
Реклама: отсутствует

MediaInfo

Код:Полное имя : Blood.and.Treasure.S01.WEBRip.RusEng.Profix.Media\Blood.and.Treasure.S01E01-02.WEBRip.RusEng.ProfixMedia.JuSSiKa.avi
Формат : AVI
Формат/Информация : Audio Video Interleave
Размер файла : 1,00 Гбайт
Продолжительность : 1 ч. 23 м.
Общий поток : 1711 Кбит/сек
Программа кодирования : VirtualDubMod 1.5.10.3 (build 2550/release)
Библиотека кодирования : VirtualDubMod build 2550/release
Видео
Идентификатор : 0
Формат : MPEG-4 Visual
Профиль формата : Advanced Simple@L5
Настройки формата : BVOP1
Параметр BVOP формата : 1
Параметр QPel формата : Нет
Параметр GMC формата : Без точки перехода
Параметр матрицы формата : Default (H.263)
Идентификатор кодека : XVID
Идентификатор кодека/Подсказка : XviD
Продолжительность : 1 ч. 23 м.
Битрейт : 1481 Кбит/сек
Ширина : 720 пикселей
Высота : 400 пикселей
Соотношение сторон : 16:9
Частота кадров : 23,976 (24000/1001) кадра/сек
Цветовое пространство : YUV
Субдискретизация насыщенности : 4:2:0
Битовая глубина : 8 бит
Тип развёртки : Прогрессивная
Метод сжатия : С потерями
Бит/(Пиксели*Кадры) : 0.209
Размер потока : 863 Мбайт (84%)
Библиотека кодирования : XviD 1.2.1 (UTC 2008-12-04)
Аудио #1
Идентификатор : 1
Формат : MPEG Audio
Версия формата : Version 1
Профиль формата : Layer 3
Настройки формата : Joint stereo / MS Stereo
Режим : Joint stereo
Расширение режима : MS Stereo
Идентификатор кодека : 55
Идентификатор кодека/Подсказка : MP3
Продолжительность : 1 ч. 23 м.
Вид битрейта : Постоянный
Битрейт : 128 Кбит/сек
Каналы : 2 канала
Частота : 48,0 КГц
Метод сжатия : С потерями
Размер потока : 76,6 Мбайт (7%)
Выравнивание : Соединение по промежуткам
Продолжительность промежутка : 42 мс. (1,00 видеокадр)
Время предзагрузки промежутка : 504 мс.
Аудио #2
Идентификатор : 2
Формат : MPEG Audio
Версия формата : Version 1
Профиль формата : Layer 3
Настройки формата : Joint stereo / MS Stereo
Режим : Joint stereo
Расширение режима : MS Stereo
Идентификатор кодека : 55
Идентификатор кодека/Подсказка : MP3
Продолжительность : 1 ч. 23 м.
Вид битрейта : Постоянный
Битрейт : 128 Кбит/сек
Каналы : 2 канала
Частота : 48,0 КГц
Метод сжатия : С потерями
Размер потока : 76,6 Мбайт (7%)
Выравнивание : Соединение по промежуткам
Продолжительность промежутка : 42 мс. (1,00 видеокадр)
Время предзагрузки промежутка : 504 мс.

Скриншоты

Внимание! Раздача ведётся путём добавления новых серий

Внимание! Раздача ведётся путём добавления новых серий; при каждом добавлении создаётся новый торрент. Чтобы начать докачку новой серии, пользователям необходимо сделать следующее:
(1) остановить скачивание,
(2) удалить старый торрент у себя из клиента (старые серии удалять не надо),
(3) скачать новый торрент и запустить его у себя в клиенте вместо старого, при этом указать клиенту путь в старую папку куда и должно происходить скачивание новых серий.
Ваш клиент при этом должен произвести хеширование (проверку) старой папки (если не производит сам - помогите ему сделать это), и будет докачивать только те серии которых у вас ещё нет. Старые серии при этом не удаляются, а продолжают раздаваться!
Eсли вы уже удалили старые серии, то предотвратить повторную закачку старых серий можно, отжав галочку в соответствующих местах при запуске нового торрента. По возможности, желательно не удалять старые серии как можно дольше чтобы релизёр не столько продолжал раздавать старые серии, а смог сконцентрироваться на новых.
[cybertorrent.net].t3079.torrent 
Торрент: Зарегистрирован [ 2019-05-24 16:14 ] · 6A75334ADCDE08BCB14A02B142F6DE6ED5D648E0

Скачать .torrent

Скачать

11 KB

Статус: проверено
Скачан: 0 раз
Размер: 1 GB
terms.php
Показать сообщения:    

Текущее время: 14-Ноя 22:01

Часовой пояс: UTC ± 0



Вы не можете начинать темы
Вы не можете отвечать на сообщения
Вы не можете редактировать свои сообщения
Вы не можете удалять свои сообщения
Вы не можете голосовать в опросах
Вы не можете прикреплять файлы к сообщениям
Вы можете скачивать файлы