Статистика раздачи
Размер:  893 MB   |    Зарегистрирован:  5 месяцев 20 дней   |    Скачан:  0 раз
Сидов:  8  [  0 KB/s  ]  
 
     
 
 

Гость ®

Пол:
Не указан

Фитнес
Год выпуска: 2019
Производство: Yellow, Black and White
Жанр: комедия
Продолжительность: ~00:24:00 серия
Субтитры: нет
Режиссёр: Кирилл Васильев
В ролях: Софья Зайка, Михаил Трухин, Татьяна Храмова, Роман Курцын, Алексей Демидов, Борис Дергачев, Марианна Шульц, Ольга Баранова, Анна Лауренская, Татьяна Сомова, Мария Малиновская, Александр Семчев, Данила Якушев, Евгений Михеев, Дмитрий Чеботарёв, Елизавета Мартинес, Ирина Бякова, Андрей Пынзару
Описание: «Быстрее, выше, сильнее»… Перемены в фитнес-клубе SUPERFIT. Похудевшая на 20 килограмм Ася будет строить карьеру и личную жизнь. Теперь она решила делиться советами о том, как сбросить лишний вес, в своей группе «ВКонтакте». Блогерская деятельность постепенно начинает отнимать у нее все больше времени, что очень расстраивает Бориса. К дружной команде присоединится массажист Фил, а одного из сотрудников ждёт встреча с бывшей женой.

Реклама: Нет.
Кинопоиск
Все раздачи сериала
Sample
Качество: WEBRip 1080p - Getty
Формат: MKV
Видео кодек: H.264
Аудио кодек: AC3
Видео: MPEG4 AVC Video, H264, 16:9, 1920x1080, 25 fps, ~5000 kbps, 0.096 bit/pixel
Аудио: AC3 Dolby Digital, 48.0 kHz, 2/0 (L,R) ch, 192 kbps

Внимание! Раздача ведётся путём добавления новых серий

Раздача ведётся путём добавления новых серий, при каждом добавлении создаётся новый торрент. Чтобы начать докачку новой серии, пользователям необходимо сделать следующее:
- Остановить скачивание.
- Удалить старый торрент у себя из клиента (старые серии удалять не надо).
- Скачать новый торрент и запустить его у себя в клиенте вместо старого, при этом указать клиенту путь в старую папку куда и должно происходить скачивание новых серий.
Ваш клиент при этом должен произвести хеширование (проверку) старой папки (если не производит сам - помогите ему сделать это), и будет докачивать только те серии которых у вас ещё нет. Старые серии при этом не удаляются, а продолжают раздаваться!
Если вы уже удалили старые серии, то предотвратить повторную закачку старых серий можно, отжав галочку в соответствующих местах при запуске нового торрента. По возможности, желательно не удалять старые серии как можно дольше, чтобы релизер не столько продолжал раздавать старые серии, а смог сконцентрироваться на новых.

MI

General
Unique ID : 174468318313842403385471064899785331468 (0x834160384774C6959233C5E2B720130C)
Complete name : D:\Fitnes.S02.2019.WEB-DL.(1080p).Getty\Fitnes.s02e01.2019.WEB-DL.(1080p).Getty.mkv
Format : Matroska
Format version : Version 4 / Version 2
File size : 893 MiB
Duration : 24 min 18 s
Overall bit rate mode : Constant
Overall bit rate : 5 138 kb/s
Movie name : Fitnes.s02e01.2019.WEB-DL.(1080p).Getty
Encoded date : UTC 2019-05-23 16:37:14
Writing application : mkvmerge v7.8.0 ('River Man') 32bit built on Mar 27 2015 16:18:02
Writing library : libebml v1.3.1 + libmatroska v1.4.2
Video
ID : 1
Format : AVC
Format/Info : Advanced Video Codec
Format profile : Baseline@L4
Format settings : 4 Ref Frames
Format settings, CABAC : No
Format settings, ReFrames : 4 frames
Codec ID : V_MPEG4/ISO/AVC
Duration : 24 min 18 s
Bit rate mode : Constant
Bit rate : 5 000 kb/s
Width : 1 920 pixels
Height : 1 080 pixels
Display aspect ratio : 16:9
Frame rate mode : Constant
Frame rate : 25.000 FPS
Standard : PAL
Color space : YUV
Chroma subsampling : 4:2:0
Bit depth : 8 bits
Scan type : Progressive
Bits/(Pixel*Frame) : 0.096
Stream size : 859 MiB (96%)
Default : Yes
Forced : No
Color range : Limited
Color primaries : BT.709
Transfer characteristics : BT.709
Matrix coefficients : BT.709
Audio
ID : 2
Format : AC-3
Format/Info : Audio Coding 3
Codec ID : A_AC3
Duration : 24 min 18 s
Bit rate mode : Constant
Bit rate : 192 kb/s
Channel(s) : 2 channels
Channel positions : Front: L R
Sampling rate : 48.0 kHz
Frame rate : 31.250 FPS (1536 SPF)
Bit depth : 16 bits
Compression mode : Lossy
Stream size : 33.4 MiB (4%)
Service kind : Complete Main
Default : Yes
Forced : No

Скриншоты


[cybertorrent.net].t3072.torrent 
Торрент: Зарегистрирован [ 2019-05-24 16:14 ] · 937A12F60B96872EEF9C8C0DA2BB6455B2287CD7

Скачать .torrent

Скачать

18 KB

Статус: проверено
Скачан: 0 раз
Размер: 893 MB
terms.php
Показать сообщения:    

Текущее время: 14-Ноя 09:22

Часовой пояс: UTC ± 0



Вы не можете начинать темы
Вы не можете отвечать на сообщения
Вы не можете редактировать свои сообщения
Вы не можете удалять свои сообщения
Вы не можете голосовать в опросах
Вы не можете прикреплять файлы к сообщениям
Вы можете скачивать файлы