Статистика раздачи
Размер:  349 MB   |    Зарегистрирован:  5 месяцев 25 дней   |    Скачан:  0 раз
Сидов:  20  [  0 KB/s  ]  
 
     
 
 

Гость ®

Пол:
Не указан

Фитнес
Год выпуска: 2019
Производство: Yellow, Black and White
Жанр: комедия
Продолжительность: ~00:24:00 серия
Субтитры: нет
Режиссёр: Кирилл Васильев
В ролях: Софья Зайка, Михаил Трухин, Татьяна Храмова, Роман Курцын, Алексей Демидов, Борис Дергачев, Марианна Шульц, Ольга Баранова, Анна Лауренская, Татьяна Сомова, Мария Малиновская, Александр Семчев, Данила Якушев, Евгений Михеев, Дмитрий Чеботарёв, Елизавета Мартинес, Ирина Бякова, Андрей Пынзару
Описание: «Быстрее, выше, сильнее»… Перемены в фитнес-клубе SUPERFIT. Похудевшая на 20 килограмм Ася будет строить карьеру и личную жизнь. Теперь она решила делиться советами о том, как сбросить лишний вес, в своей группе «ВКонтакте». Блогерская деятельность постепенно начинает отнимать у нее все больше времени, что очень расстраивает Бориса. К дружной команде присоединится массажист Фил, а одного из сотрудников ждёт встреча с бывшей женой.

Реклама: Нет.
Кинопоиск
Все раздачи сериала
Sample
Качество: WEBRip - 25Kuzmich
Формат: AVI
Видео кодек: XviD
Аудио кодек: AC3
Видео: 720x400 (1.80:1), 25 fps, XviD ~1800 kbps avg, 0.251 bit/pixel
Аудио: 48.0 kHz, AC3 Dolby Digital, 2/0 (L,R) ch, ~ 192 kbps

Внимание! Раздача ведётся путём добавления новых серий

Раздача ведётся путём добавления новых серий, при каждом добавлении создаётся новый торрент. Чтобы начать докачку новой серии, пользователям необходимо сделать следующее:
- Остановить скачивание.
- Удалить старый торрент у себя из клиента (старые серии удалять не надо).
- Скачать новый торрент и запустить его у себя в клиенте вместо старого, при этом указать клиенту путь в старую папку куда и должно происходить скачивание новых серий.
Ваш клиент при этом должен произвести хеширование (проверку) старой папки (если не производит сам - помогите ему сделать это), и будет докачивать только те серии которых у вас ещё нет. Старые серии при этом не удаляются, а продолжают раздаваться!
Если вы уже удалили старые серии, то предотвратить повторную закачку старых серий можно, отжав галочку в соответствующих местах при запуске нового торрента. По возможности, желательно не удалять старые серии как можно дольше, чтобы релизер не столько продолжал раздавать старые серии, а смог сконцентрироваться на новых.

MI

General
Complete name : D:\Fitnes.S02.WEB-DLRip.25Kuzmich\Fitnes.s02.e01.WEB-DLRip.25Kuzmich.avi
Format : AVI
Format/Info : Audio Video Interleave
File size : 349 MiB
Duration : 24 min 18 s
Overall bit rate : 2 010 kb/s
Writing application : VirtualDubMod 1.5.10.3 | www.virtualdub-fr.org || (build 2550/release)
Writing library : VirtualDubMod build 2550/release
Video
ID : 0
Format : MPEG-4 Visual
Format profile : Advanced Simple@L5
Format settings : BVOP1
Format settings, BVOP : 1
Format settings, QPel : No
Format settings, GMC : No warppoints
Format settings, Matrix : Default (MPEG)
Codec ID : XVID
Codec ID/Hint : XviD
Duration : 24 min 18 s
Bit rate : 1 808 kb/s
Width : 720 pixels
Height : 400 pixels
Display aspect ratio : 16:9
Frame rate : 25.000 FPS
Color space : YUV
Chroma subsampling : 4:2:0
Bit depth : 8 bits
Scan type : Progressive
Compression mode : Lossy
Bits/(Pixel*Frame) : 0.251
Stream size : 314 MiB (90%)
Writing library : XviD 73
Audio
ID : 1
Format : AC-3
Format/Info : Audio Coding 3
Codec ID : 2000
Duration : 24 min 18 s
Bit rate mode : Constant
Bit rate : 192 kb/s
Channel(s) : 2 channels
Channel positions : Front: L R
Sampling rate : 48.0 kHz
Frame rate : 31.250 FPS (1536 SPF)
Bit depth : 16 bits
Compression mode : Lossy
Stream size : 33.4 MiB (10%)
Alignment : Split accross interleaves
Interleave, duration : 40 ms (1.00 video frame)
Interleave, preload duratio : 500 ms
Service kind : Complete Main

Скриншоты


[cybertorrent.net].t3071.torrent 
Торрент: Зарегистрирован [ 2019-05-24 16:14 ] · D4DDB88F532FBFB6A504C577B29389297C7276C3

Скачать .torrent

Скачать

14 KB

Статус: проверено
Скачан: 0 раз
Размер: 349 MB
terms.php
Показать сообщения:    

Текущее время: 19-Ноя 03:45

Часовой пояс: UTC ± 0



Вы не можете начинать темы
Вы не можете отвечать на сообщения
Вы не можете редактировать свои сообщения
Вы не можете удалять свои сообщения
Вы не можете голосовать в опросах
Вы не можете прикреплять файлы к сообщениям
Вы можете скачивать файлы