Статистика раздачи
Размер:  2,18 GB   |    Зарегистрирован:  6 месяцев 27 дней   |    Скачан:  0 раз
DL-List: Нет

Полного источника не было: Никогда

   
 

serzh ®

Пол:
Не указан
Стаж:
7 месяцев 2 дня
Сообщений:
384

Кодекс молчания / Code of Silence
Страна: США
Жанр: боевик, драма
Год выпуска: 1985
Продолжительность: 01:40:49
Перевод 1: Авторский (одноголосый закадровый) Леонида Володарского
Перевод 2: Авторский (одноголосый закадровый) Василия Горчакова
Субтитры: английские
Оригинальная аудиодорожка: английский
Режиссер: Эндрю Дэвис /Andrew Davis/
В ролях: Чак Норрис /Chuck Norris/, Хенри Силва /Henry Silva/, Берт Ремсен /Bert Remsen/, Деннис Фарина /Dennis Farina/, Майк Дженовезе /Mike Genovese/, Джозеф Гузальдо /Joseph Guzaldo/, Молли Хэйгэн /Molly Hagan/, Джон Мэхоуни /John Mahoney/
Рецензия Михаила Иванова: Сержант полиции Эдди Кьюсак (Норрис) ведет жестокую борьбу с торговцами наркотиками и коррумпированными полицейскими. Норрис выступает достойным приемником Чарлза Бронсона, эталонного исполнителя таких ролей.
Доп. информация: рип из раздачи T-1000; Горчаков от edich2/alenavova; Володарского оцифровал и подготовил karlll
~Сэмпл~
Качество видео: BDRip-AVC
Формат видео: MKV
Видео: MPEG4 Video (H264) 1024x544 23.98fps 2517Kbps
Аудио 1: Dolby AC3 48KHz 2ch 192Kbps - Володарский
Аудио 2: Dolby AC3 48KHz 2ch 192Kbps - Горчаков
Аудио 3: Dolby AC3 48KHz 2ch 192Kbps - Original Eng
Формат субтитров: softsub (SRT)

MediaInfo

Формат : Matroska
Версия формата : Version 2
Размер файла : 2,18 Гбайт
Продолжительность : 1 ч. 40 м.
Общий поток : 3093 Кбит/сек
Название фильма : Code of Silence_1985_[T-1000_edich2_alenavova_karlll]
Дата кодирования : UTC 2019-02-19 17:27:12
Программа кодирования : mkvmerge v6.9.1 ('Blue Panther') 32bit built on Apr 18 2014 18:15:44
Библиотека кодирования : libebml v1.3.0 + libmatroska v1.4.1
Видео
Идентификатор : 1
Формат : AVC
Формат/Информация : Advanced Video Codec
Профиль формата : High@L4.1
Параметр CABAC формата : Да
Параметр ReFrames формата : 10 кадров
Идентификатор кодека : V_MPEG4/ISO/AVC
Продолжительность : 1 ч. 40 м.
Битрейт : 2517 Кбит/сек
Ширина : 1024 пикселя
Высота : 544 пикселя
Соотношение сторон : 1,882
Режим частоты кадров : Постоянный
Частота кадров : 23,976 кадра/сек
Цветовое пространство : YUV
Субдискретизация насыщенности : 4:2:0
Битовая глубина : 8 бит
Тип развёртки : Прогрессивная
Бит/(Пиксели*Кадры) : 0.188
Размер потока : 1,73 Гбайт (79%)
Заголовок : Code of Silence_1985
Библиотека кодирования : x264 core 125 r2208 d9d2288
Настройки программы : cabac=1 / ref=10 / deblock=1:-2:-1 / analyse=0x3:0x113 / me=umh / subme=11 / psy=1 / psy_rd=1.00:0.20 / mixed_ref=1 / me_range=32 / chroma_me=1 / trellis=2 / 8x8dct=1 / cqm=0 / deadzone=21,11 / fast_pskip=0 / chroma_qp_offset=-3 / threads=4 / lookahead_threads=1 / sliced_threads=0 / nr=0 / decimate=0 / interlaced=0 / bluray_compat=0 / constrained_intra=0 / bframes=9 / b_pyramid=2 / b_adapt=2 / b_bias=0 / direct=3 / weightb=1 / open_gop=0 / weightp=2 / keyint=240 / keyint_min=23 / scenecut=40 / intra_refresh=0 / rc_lookahead=40 / rc=2pass / mbtree=0 / bitrate=2517 / ratetol=1.0 / qcomp=0.60 / qpmin=0 / qpmax=69 / qpstep=4 / cplxblur=20.0 / qblur=0.5 / vbv_maxrate=50000 / vbv_bufsize=50000 / nal_hrd=none / ip_ratio=1.40 / pb_ratio=1.30 / aq=1:1.00
Язык : English
Default : Да
Forced : Да
Аудио #1
Идентификатор : 2
Формат : AC-3
Формат/Информация : Audio Coding 3
Расширение режима : CM (complete main)
Параметр Endianness формата : Big
Идентификатор кодека : A_AC3
Продолжительность : 1 ч. 40 м.
Вид битрейта : Постоянный
Битрейт : 192 Кбит/сек
Каналы : 2 канала
Расположение каналов : Front: L R
Частота : 48,0 КГц
Битовая глубина : 16 бит
Метод сжатия : С потерями
Размер потока : 138 Мбайт (6%)
Заголовок : Володарский
Язык : Russian
Default : Да
Forced : Нет
Аудио #2
Идентификатор : 3
Формат : AC-3
Формат/Информация : Audio Coding 3
Расширение режима : CM (complete main)
Параметр Endianness формата : Big
Идентификатор кодека : A_AC3
Продолжительность : 1 ч. 40 м.
Вид битрейта : Постоянный
Битрейт : 192 Кбит/сек
Каналы : 2 канала
Расположение каналов : Front: L R
Частота : 48,0 КГц
Битовая глубина : 16 бит
Метод сжатия : С потерями
Размер потока : 138 Мбайт (6%)
Заголовок : Горчаков
Язык : Russian
Default : Нет
Forced : Нет
Аудио #3
Идентификатор : 4
Формат : AC-3
Формат/Информация : Audio Coding 3
Расширение режима : CM (complete main)
Параметр Endianness формата : Big
Идентификатор кодека : A_AC3
Продолжительность : 1 ч. 40 м.
Вид битрейта : Постоянный
Битрейт : 192 Кбит/сек
Каналы : 2 канала
Расположение каналов : Front: L R
Частота : 48,0 КГц
Битовая глубина : 16 бит
Метод сжатия : С потерями
Размер потока : 138 Мбайт (6%)
Заголовок : english
Язык : English
Default : Нет
Forced : Нет
Текст
Идентификатор : 5
Формат : UTF-8
Идентификатор кодека : S_TEXT/UTF8
Идентификатор кодека/Информация : UTF-8 Plain Text
Заголовок : english
Язык : English
Default : Нет
Forced : Нет

Скриншоты

[cybertorrent.net].t307.torrent 
Торрент: Зарегистрирован [ 2019-03-18 10:04 ] · 3B084BEC01FA3C5A2573C6D40E1FDBCFB165C2D5

Скачать .torrent

Скачать

11 KB

Статус: проверено
Скачан: 0 раз
Размер: 2,18 GB
terms.php
Профиль ЛС
Показать сообщения:    

Текущее время: 15-Окт 08:32

Часовой пояс: UTC ± 0



Вы не можете начинать темы
Вы не можете отвечать на сообщения
Вы не можете редактировать свои сообщения
Вы не можете удалять свои сообщения
Вы не можете голосовать в опросах
Вы не можете прикреплять файлы к сообщениям
Вы можете скачивать файлы